Поиск

1972 Sahib Shihab - Sentiments {2xHD} (2018) [24-192]

1972 Sahib Shihab - Sentiments {2xHD} (2018) [24-192]
Стили:
Дата записи диска:
18 августа 1965 - 1 марта 1971
Издатель (лейбл):
Носитель:
WEB
Формат:
PCM
Тип рипа:
tracks
Контейнер:
FLAC (*.flac)
Количество каналов:
2.0
Разрядность/ЧД:
24/192
Битрейт аудио:
lossless
Время звучания:
00:38:30
Наличие сканов:
буклет pdf
Наличие водяных знаков:
нет
Страна-производитель диска (релиза):
USA
Релизёр (источник):
M0p94ok

Треклист:

1. Ma'nee  07:41
2. The Call  07:56
3. Rue de la Harpe  05:00
4. Sentiments  05:18
5. From Me to You  03:42
6. Extase  04:37
7. Companionship  04:15

Доп. инфо:

Как и многие американцы, которые предпочитают жить и работать в Европе, записанное наследие исполнителя на нескольких язычковых Сахиба Шихаба, как правило, игнорируется фанатами на его родине. Сантименты парные записи, которые он сделал для двух отдельных альбомов между 1965 и 1971 годами. На сессии 1971 года его сопровождали товарищ-экспатриант Кенни Дрю, басист Нильс-Хеннинг Орстед Педерсен и барабанщик Джимми Хоппс. Большинство композиций написаны лидером, начиная с экзотической смеси хард-бопа и африканского ритма, включая танцевальное сопрано-саксофон Шихаба и басовое соло Педерсена. Дрю переключается на орган, а Педерсен относительно редко появляется на электробасу в фанковой "Sentiments". Лидер переключается на баритон-саксофон в яркой балладе Дрю "Extase". На сессиях 1965 года Шихаб выступал в качестве гостя с группой Danish Radio Jazz Group, сыграв шесть его оригиналов. "Di-Da" - запоминающаяся мелодия хард-бопа, в которой одна нота многократно повторяется участниками группы, хотя узор исчезает, когда он запускает свой мощный баритон-саксофон. Также выделяются угрюмый "Tenth Lament" и задорный "Harvey's Tune", в последнем произведении Шихаб переключился на флейту. В ролях второго плана входят ведущие европейские музыканты, в том числе Нильс Педерсен, пианист Бент Аксен, трубачи Палле Миккельборг и Аллан Ботчинский, а также барабанщик Алекс Риль.

https://www.nativedsd.com/catalogue/albums/2xhdst1126-sentiments/

Лог проверки качества
foobar2000 1.6.2 / Dynamic Range Meter 1.1.1
log date: 2021-05-14 15:37:25

--------------------------------------------------------------------------------
Analyzed: Sahib Shihab / Sentiments (Remastered)
--------------------------------------------------------------------------------

DR         Peak         RMS     Duration Track
--------------------------------------------------------------------------------
DR11      -2.64 dB   -17.14 dB      7:41 01-Ma'nee
DR11      -2.80 dB   -17.76 dB      7:56 02-The Call
DR11      -2.32 dB   -16.53 dB      5:00 03-Rue de la Harpe
DR12      -3.36 dB   -18.09 dB      5:19 04-Sentiments
DR11      -3.58 dB   -17.57 dB      3:43 05-From Me to You
DR12      -5.43 dB   -22.31 dB      4:38 06-Extase
DR11      -9.87 dB   -25.73 dB      4:16 07-Companionship
--------------------------------------------------------------------------------

Number of tracks:  7
Official DR value: DR11

Samplerate:        192000 Hz
Channels:          2
Bits per sample:   24
Bitrate:           4571 kbps
Codec:             FLAC
================================================================================
Приватный:
Нет (DHT включён)
Размер:
1.33 Гб (1,426,397,645 байт) » файлов: 10
Участники:
3 раздают, 0 качают (3 участников всего)
Внешние участники:
--- [ Обновить ]
No seeders - write personal message to M0p94ok. Нет сидеров - пишите в личку M0p94ok.
09:42
35
Нет комментариев. Ваш будет первым!