Поиск

2021 Raphaël Imbert - Oraison {Outnote} [24-48]

2021 Raphaël Imbert - Oraison {Outnote} [24-48]
Стили:
Дата издания диска:
23 апреля 2021
Носитель:
WEB
Формат:
PCM
Тип рипа:
tracks
Контейнер:
FLAC (*.flac)
Количество каналов:
2.0
Разрядность/ЧД:
24/48
Битрейт аудио:
lossless
Время звучания:
01:15:13
Наличие сканов:
буклет pdf
Наличие водяных знаков:
нет
Релизёр (источник):
M0p94ok

Треклист:

01. For years (I) (02:19)
02. Oraison (05:07)
03. 1851 (03:22)
04. Straßen des Gedenkens (05:47)
05. Oraison d’Émile Latil (01:34)
06. L’Atlantique (09:09)
07. Oraison belliqueuse (04:36)
08. For years (II) (01:56)
09. Chant de bataille (05:30)
10. Ode à Odde l’Auguste (07:58)
11. Oraison d’Eugène Revest (02:34)
12. L’espace des feux (08:44)
13. Oraison de Clément Plane (03:47)
14. Timon en berceuse (02:19)
15. Petite sauce couleur garance (02:33)
16. Malo’s sunset (06:18)
17. For years (III) (01:33)

Лог проверки качества
foobar2000 1.6.2 / Dynamic Range Meter 1.1.1
log date: 2021-05-14 15:11:34

--------------------------------------------------------------------------------
Analyzed: Raphaël Imbert / Oraison (1-16)
          Vincent Lafont / Oraison (17)
--------------------------------------------------------------------------------

DR         Peak         RMS     Duration Track
--------------------------------------------------------------------------------
DR7       -0.01 dB   -10.42 dB      2:20 01-For years (I)
DR12      -0.03 dB   -15.39 dB      5:07 02-Oraison
DR10      -0.01 dB   -12.34 dB      3:23 03-1851
DR10      -0.01 dB   -12.01 dB      5:48 04-Straßen des Gedenkens
DR12      -4.16 dB   -21.16 dB      1:34 05-Oraison d’Émile Latil
DR11      -0.02 dB   -13.99 dB      9:09 06-L’Atlantique
DR9       -0.02 dB   -11.38 dB      4:37 07-Oraison belliqueuse
DR13      -0.95 dB   -19.43 dB      5:30 09-Chant de bataille
DR10      -0.01 dB   -12.56 dB      7:58 10-Ode à Odde l'Auguste
DR12      -1.63 dB   -17.85 dB      2:34 11-Oraison d'Eugène Revest
DR10      -0.01 dB   -12.69 dB      8:44 12-L'espace des feux
DR10      -0.01 dB   -13.74 dB      3:47 13-Oraison de Clément Plane
DR10      -0.02 dB   -14.86 dB      2:19 14-Timon en berceuse
DR12      -0.14 dB   -17.37 dB      2:34 15-Petite sauce couleur garance
DR11      -0.01 dB   -13.42 dB      6:18 16-Malo's sunset
DR11      -3.68 dB   -18.30 dB      1:34 17-For years (III)
DR14      -2.03 dB   -22.97 dB      1:57 08-For years (II)
--------------------------------------------------------------------------------

Number of tracks:  17
Official DR value: DR11

Samplerate:        48000 Hz
Channels:          2
Bits per sample:   24
Bitrate:           1208 kbps
Codec:             FLAC
================================================================================
Приватный:
Нет (DHT включён)
Размер:
890.10 Мб (933,338,193 байт) » файлов: 20
Участники:
5 раздают, 0 качают (5 участников всего)
Внешние участники:
--- [ Обновить ]
No seeders - write personal message to M0p94ok. Any questions - support@pro-jazz.com.
Нет сидеров - пишите в личку M0p94ok. Есть вопросы - support@pro-jazz.com
15:19
53
Нет комментариев. Ваш будет первым!