Поиск

2021 Tower Of Power - 50 Years of Funk & Soul Live at the Fox Theater {Artistry Music} [24-96]

2021 Tower Of Power - 50 Years of Funk & Soul Live at the Fox Theater {Artistry Music} [24-96]
Стили:
Дата издания диска:
26 февраля 2021
Битрейт аудио:
lossless

Треклист:

Part 1
01. Stroke '75 (Live)  02:40
02. Ain't Nothing Stopping Us Now (Live)  02:36
03. You Ought to Be Having Fun (Live)  03:21
04. Soul with a Capital S (Live)  06:07
05. Stop (Live)  04:34
06. You're So Wonderful, So Marvelous (Live)  03:06
07. On the Serious Side (Live)  04:17
08. Just When We Start Makin' It (Live)  07:24
09. Soul Vaccination (Live)  05:04
10. What is Hip? / Soul Power (Live)  09:25
11. Do You Like That? (Live)  03:36
12. Drop It in the Slot (Live)  03:12
Part 2
01. Can't You See (You Doin' Me Wrong)? (Live)  03:54
02. Maybe It'll Rub Off (Live)  03:12
03. Don't Change Horses (Live)  06:28
04. Squib Cakes (Live)  06:24
05. On the Soul Side of Town (Live)  05:13
06. Diggin' on James Brown (Medley): Diggin’ on James Brown / It’s a New Day / Mother Popcorn / There It Is / I Got the Feelin’ / Digg (Live)  09:20
07. So Very Hard to Go (Live)  03:59
08. Knock Yourself Out (Live)  08:37
09. You're Still a Young Man (Live)  06:01
10. Souled Out (Live)  04:36

Лог проверки качества
foobar2000 1.6.4 / Замер динамического диапазона (DR) 1.1.1
Дата отчёта:  2021-03-08 11:19:22

--------------------------------------------------------------------------------
Анализ:   Tower Of Power / 50 Years of Funk & Soul: Live at the Fox Theater - Oakland, CA - June 2018
--------------------------------------------------------------------------------

DR         Пики         RMS           Продолжительность трека
--------------------------------------------------------------------------------
DR9       -1.00 дБ   -12.71 дБ      2:40 01-Stroke '75
DR8       -1.00 дБ   -10.79 дБ      2:36 02-Ain't Nothing Stopping Us Now
DR8       -1.00 дБ   -10.26 дБ      3:22 03-You Ought to Be Having Fun
DR9       -1.00 дБ   -11.80 дБ      6:08 04-Soul with a Capital S
DR9       -1.00 дБ   -11.37 дБ      4:34 05-Stop
DR7       -1.00 дБ    -9.29 дБ      3:07 06-You're So Wonderful, So Marvelous
DR8       -1.00 дБ   -11.01 дБ      4:17 07-On the Serious Side
DR7       -1.00 дБ   -10.34 дБ      7:24 08-Just When We Start Makin' It
DR7       -1.00 дБ    -9.42 дБ      5:04 09-Soul Vaccination
DR7       -1.00 дБ    -9.72 дБ      9:25 10-What is Hip? / Soul Power
DR7       -1.00 дБ    -9.99 дБ      3:36 11-Do You Like That?
DR8       -1.00 дБ   -10.92 дБ      3:13 12-Drop It in the Slot
--------------------------------------------------------------------------------

Количество треков: 12
Реальные значения DR: DR8

Частота:   96000 Гц
Каналов:   2
Разрядность:   24
Битрейт:   2904 кбит/с
Кодек:   FLAC
================================================================================

foobar2000 1.6.4 / Замер динамического диапазона (DR) 1.1.1
Дата отчёта:  2021-03-09 08:43:26

--------------------------------------------------------------------------------
Анализ:   Tower Of Power / 50 Years of Funk & Soul: Live at the Fox Theater - Oakland, CA - June 2018
--------------------------------------------------------------------------------

DR         Пики         RMS           Продолжительность трека
--------------------------------------------------------------------------------
DR7       -1.00 дБ   -10.17 дБ      3:55 01-Can't You See (You Doin' Me Wrong)?
DR7       -1.00 дБ    -9.48 дБ      3:12 02-Maybe It'll Rub Off
DR8       -1.00 дБ   -10.48 дБ      6:29 03-Don't Change Horses
DR8       -1.00 дБ   -10.23 дБ      6:24 04-Squib Cakes
DR7       -1.00 дБ    -9.13 дБ      5:14 05-On the Soul Side of Town
DR8       -1.00 дБ   -10.05 дБ      9:21 06-Diggin' on James Brown (Medley): Diggin’ on James Brown / It’s a New Day / Mother Popcorn / There It Is / I Got the Feelin’ / Diggin’ on James Brown (Reprise)
DR7       -1.00 дБ    -9.94 дБ      4:00 07-So Very Hard to Go
DR8       -1.00 дБ   -10.59 дБ      8:37 08-Knock Yourself Out
DR8       -1.00 дБ   -11.02 дБ      6:01 09-You're Still a Young Man
DR8       -1.00 дБ   -10.50 дБ      4:37 10-Souled Out
--------------------------------------------------------------------------------

Количество треков: 10
Реальные значения DR: DR7

Частота:   96000 Гц
Каналов:   2
Разрядность:   24
Битрейт:   2868 кбит/с
Кодек:   FLAC
================================================================================
Приватный:
Нет (DHT включён)
Размер:
2.30 Гб (2,469,036,343 байт) » файлов: 24
Участники:
0 раздают, 0 качают (0 участников всего)
Внешние участники:
--- [ Обновить ]
No seeders - write personal message to M0p94ok. Any questions - support@pro-jazz.com.
Нет сидеров - пишите в личку M0p94ok. Есть вопросы - support@pro-jazz.com
14:48
34
Нет комментариев. Ваш будет первым!