Поиск

2018 Pasquale Grasso - Solo Ballads, Vol. 1 {Okeh, Sony Masterworks} [24-96]

2018 Pasquale Grasso - Solo Ballads, Vol. 1 {Okeh, Sony Masterworks} [24-96]
Издатель (лейбл):
Носитель:
WEB
Формат:
PCM
Тип рипа:
tracks
Контейнер:
FLAC (*.flac)
Количество каналов:
2.0
Разрядность/ЧД:
24/96
Битрейт аудио:
lossless
Время звучания:
00:20:17
Наличие сканов:
только обложка
Наличие водяных знаков:
нет
Страна-производитель диска (релиза):
USA
Релизёр (источник):
M0p94ok

Треклист:

1. Body and Soul  04:07
2. These Foolish Things  04:23
3. Someone to Watch Over Me  04:12
4. Ev'ry Time We Say Goodbye  03:13
5. Over the Rainbow  04:22

Лог проверки качества
foobar2000 1.6.2 / Dynamic Range Meter 1.1.1
log date: 2021-05-14 12:23:14

--------------------------------------------------------------------------------
Analyzed: Pasquale Grasso / Solo Ballads, Vol. 1
--------------------------------------------------------------------------------

DR         Peak         RMS     Duration Track
--------------------------------------------------------------------------------
DR11      -1.12 dB   -14.39 dB      4:07 01-Body and Soul
DR11      -1.12 dB   -14.52 dB      4:24 02-These Foolish Things
DR10      -1.12 dB   -13.71 dB      4:12 03-Someone to Watch Over Me
DR10      -1.12 dB   -14.13 dB      3:14 04-Ev'ry Time We Say Goodbye
DR11      -1.12 dB   -14.56 dB      4:23 05-Over the Rainbow
--------------------------------------------------------------------------------

Number of tracks:  5
Official DR value: DR11

Samplerate:        96000 Hz
Channels:          2
Bits per sample:   24
Bitrate:           2248 kbps
Codec:             FLAC
================================================================================
Приватный:
Нет (DHT включён)
Размер:
328.79 Мб (344,763,711 байт) » файлов: 7
Участники:
6 раздают, 0 качают (6 участников всего)
Внешние участники:
--- [ Обновить ]
No seeders - write personal message to M0p94ok. Any questions - support@pro-jazz.com.
Нет сидеров - пишите в личку M0p94ok. Есть вопросы - support@pro-jazz.com
12:34
42
Нет комментариев. Ваш будет первым!