Поиск

1964 Charles Mingus - Mingus Mingus Mingus Mingus Mingus (2020) {Verve} [24-96]

1964 Charles Mingus - Mingus Mingus Mingus Mingus Mingus (2020) {Verve} [24-96]
Стили:
Дата записи диска:
20 января 1963 и 20 сентября 1963
Место записи:
New York City, New York, USA
Издатель (лейбл):
Битрейт аудио:
lossless
Доп. инфо:

Формат записи/Источник записи: [TR24][OF]
Издание: Remastered
Год издания/переиздания диска: 1963/2020
Продолжительность: 00:40:23
Наличие сканов в содержимом раздачи: Нет

Контейнер: FLAC (*.flac)
Тип рипа: tracks
Разрядность: 24/96
Количество каналов: 2.0

Источник (релизер): HDTracks

Завершив то, что он (и многие критики) считал своим шедевром в «Черном святом и грешной леди», следующие сессии Чарльза Мингуса для «Импульса» заставили его оглянуться на долгую и плодотворную карьеру. Mingus Mingus Mingus Mingus Mingus - это своего рода пластинка «пересмотр величайших хитов», поскольку басист обновляет или переделывает некоторые из своих самых известных работ. Изменены и названия - "II B.S." это в основном "Гаитянская боевая песня" (это версия, которая использовалась в рекламе автомобилей конца 90-х); «Тема для Лестера Янга» - «Прощай, шляпа со свиным пирогом»; "Better Get Hit in Your Soul" добавляет новый финал, но только одну букву к названию; "Hora Decubitus" - это бурная переработка "E's Flat Ah's Flat Too"; а "I X Love" модифицирует "Nouroog", который был частью "Открытого письма герцогу". Также есть кавер на «Mood Indigo» Дюка Эллингтона, в котором осталась только одна новая композиция «Селия». Что, естественно, приводит к вопросу: что именно делает эту работу Mingus значимой при явной нехватке идей? Ответ заключается в том, что собранные здесь группы из 11 участников (немного отличающиеся для двух отдельных сессий записи) являются одними из лучших Мингуса, в них участвуют некоторые из ключевых сотрудников (Эрик Долфи, пианист Джаки Байард), которые составят легендарный квинтет / секстет, с которым Mingus гастролировал по Европе в 1964 году. И они просто горят, разрывая версии, которые не уступают оригиналам, а зачастую и превосходят их - что, конечно, немалое достижение. Это было последнее важное заявление Мингуса за долгое время, и помимо сольного фортепианного альбома и серии концертных записей из тура 1964 года, это был его последний альбом до 1970 года. Он завершает наиболее продуктивную и значительную главу его карьеры и одного из самых плодотворных и изобретательных черт всех композиторов в истории джаза.

Лог проверки качества
foobar2000 1.4.3 / Dynamic Range Meter 1.1.1
log date: 2021-03-06 13:22:05

--------------------------------------------------------------------------------
Analyzed: Charles Mingus / Mingus Mingus Mingus Mingus Mingus
--------------------------------------------------------------------------------

DR         Peak         RMS     Duration Track
--------------------------------------------------------------------------------
DR10      -0.20 dB   -13.97 dB      4:47 01-II B.S.
DR10      -0.20 dB   -13.55 dB      7:37 02-I X Love
DR12      -0.40 dB   -15.13 dB      6:12 03-Celia
DR12      -0.30 dB   -16.25 dB      4:44 04-Mood Indigo
DR10      -0.35 dB   -13.59 dB      6:29 05-Better Get Hit In Yo' Soul
DR10      -0.25 dB   -13.70 dB      5:52 06-Theme For Lester Young
DR10      -0.75 dB   -13.80 dB      4:43 07-Hora Decubitus
--------------------------------------------------------------------------------

Number of tracks:  7
Official DR value: DR11

Samplerate:        96000 Hz
Channels:          2
Bits per sample:   24
Bitrate:           2972 kbps
Codec:             FLAC
================================================================================
No seeders - write personal message to M0p94ok. Any questions - support@pro-jazz.com.
Нет сидеров - пишите в личку M0p94ok. Есть вопросы - support@pro-jazz.com
00:09
111
Нет комментариев. Ваш будет первым!