Поиск

2019 Ole Amund Gjersvik - Twisted Walk {Acoustic} [24-44.1]

2019 Ole Amund Gjersvik - Twisted Walk {Acoustic} [24-44.1]
Стили:
Дата издания диска:
14 июня 2019
Носитель:
WEB
Формат:
PCM
Тип рипа:
tracks
Контейнер:
FLAC (*.flac)
Количество каналов:
2.0
Разрядность/ЧД:
24/44,1
Битрейт аудио:
lossless
Время звучания:
00:33:01
Наличие сканов:
только обложка
Наличие водяных знаков:
нет
Страна-производитель диска (релиза):
Norway
Релизёр (источник):
M0p94ok

Треклист:

1. Peaceful  04:27
2. Twisted Walk  04:22
3. I'm Glad I Didn't Sell This Bass  05:09
4. Something Different For A Change?  05:56
5. A Little Serenade  01:33
6. Pust - Breathe  05:37
7. Far Out - In The Morning  05:57

Доп. инфо:

Оле Амунд Гьерсвик - басист-фрилансер и композитор.

Он выпустил свой первый сольный компакт-диск "A Voice From The Past" в 1990 году. С тех пор он выпустил множество джазовых альбомов на свое собственное имя. Его последний компакт-диск «All Together Now» вышел в 2014 году, но с тех пор он выпустил много цифровых альбомов.

Он также сочинял и аранжировал музыку для других групп и артистов. Гьерсвик выпустил два диска с танго в качестве лидера Combo Tango, и он выпустил множество релизов дуэтов и трио с такими музыкантами, как Мариус Несет, Торе Торсен, Карстен Дингеланд и Стейн Урхейм и т. Д. Гьерсвик также аранжировал 12 песен (включая одну оригинальную) на Бритт-Синнев Йохансен выпускает "Skyt meg med tre roser" / "Balame Con Tres Rosas". Оле Амунд Гьерсвик с другими артистами записал более 100 компакт-дисков.

Большую часть времени Оле Амунд Гьерсвик работает басистом-фрилансером с разными музыкантами всех жанров!

https://www.prostudiomasters.com/album/page/34864

https://www.qobuz.com/fi-en/album/twisted-walk-ole-amund-gjersvik/b7f37mfp8kh4a

https://www.highresaudio.com/en/album/view/tfma4j/ole-amund-gjersvik-twisted-walk

Лог проверки качества
foobar2000 1.6.2 / Dynamic Range Meter 1.1.1
log date: 2021-05-13 19:37:33

--------------------------------------------------------------------------------
Analyzed: Ole Amund Gjersvik / Twisted Walk
--------------------------------------------------------------------------------

DR         Peak         RMS     Duration Track
--------------------------------------------------------------------------------
DR15      -5.58 dB   -26.28 dB      4:28 01-Peaceful
DR16      -4.09 dB   -24.76 dB      4:23 02-Twisted Walk
DR17      -2.59 dB   -23.80 dB      5:10 03-I'm Glad I Didn't Sell This Bass
DR13      -7.14 dB   -23.89 dB      5:56 04-Something Different For A Change?
DR10      -7.60 dB   -21.39 dB      1:34 05-A Little Serenade
DR13      -5.65 dB   -23.16 dB      5:37 06-Pust - Breathe
DR15      -2.86 dB   -22.27 dB      5:58 07-Far Out - In The Morning
--------------------------------------------------------------------------------

Number of tracks:  7
Official DR value: DR14

Samplerate:        44100 Hz
Channels:          2
Bits per sample:   24
Bitrate:           1056 kbps
Codec:             FLAC
================================================================================
Приватный:
Нет (DHT включён)
Размер:
254.05 Мб (266,390,095 байт) » файлов: 9
Участники:
5 раздают, 0 качают (5 участников всего)
Внешние участники:
--- [ Обновить ]
No seeders - write personal message to M0p94ok. Any questions - support@pro-jazz.com.
Нет сидеров - пишите в личку M0p94ok. Есть вопросы - support@pro-jazz.com
19:41
34
Нет комментариев. Ваш будет первым!