Поиск

1993 Chet Baker, Piero Umiliani - Italian Movies - Music By Piero Umiliani (2016) {Trunk} [24-44,1]

1993 Chet Baker, Piero Umiliani - Italian Movies - Music By Piero Umiliani (2016) {Trunk} [24-44,1]
Битрейт аудио:
lossless
Доп. инфо:

Формат записи/Источник записи: [TR24][OF]
Издание: Remastered
Год издания/переиздания диска: 2016
Издатель (лейбл): Trunk Records
Продолжительность: 00:37:00
Наличие сканов в содержимом раздачи: Нет

Контейнер: FLAC (*.flac)
Тип рипа: tracks
Разрядность: 24/44,1
Количество каналов: 2.0

Источник (релизер): Qobuz

Лог проверки качества
foobar2000 1.4.3 / Dynamic Range Meter 1.1.1
log date: 2021-02-22 19:11:16

--------------------------------------------------------------------------------
Analyzed: xxxx / Chet Baker Italian Movies
--------------------------------------------------------------------------------

DR         Peak         RMS     Duration Track
--------------------------------------------------------------------------------
DR9       -6.68 dB   -18.78 dB      6:10 01-Twilight At Los Angeles
DR8       -7.33 dB   -18.38 dB      4:30 02-Thinkin' Blues
DR13      -4.69 dB   -20.56 dB      3:33 03-Tension
DR10      -9.07 dB   -22.83 dB      4:55 04-Alone In A Crowd
DR9       -8.21 dB   -20.04 dB      5:50 05-Smog
DR13      -3.49 dB   -20.60 dB      5:26 06-Relaxin' With Chet
DR14      -5.48 dB   -25.27 dB      4:12 07-I Soliti Ignoti
DR11      -5.71 dB   -20.79 dB      2:26 08-Tema D'Amore
--------------------------------------------------------------------------------

Number of tracks:  8
Official DR value: DR11

Samplerate:        44100 Hz
Channels:          2
Bits per sample:   24
Bitrate:           1465 kbps
Codec:             FLAC
================================================================================
No seeders - write personal message to M0p94ok. Any questions - support@pro-jazz.com.
Нет сидеров - пишите в личку M0p94ok. Есть вопросы - support@pro-jazz.com
18:53
80
Нет комментариев. Ваш будет первым!