Поиск

1962 Nancy Wilson - Hello Young Lovers (2019) {RevOla} [24-44.1]

1962 Nancy Wilson - Hello Young Lovers (2019) {RevOla} [24-44.1]
Дата переиздания диска:
13 июня 2019
Издатель (лейбл):
Носитель:
WEB
Формат:
PCM
Тип рипа:
tracks
Контейнер:
FLAC (*.flac)
Количество каналов:
2.0
Разрядность/ЧД:
24/44,1
Битрейт аудио:
lossless
Время звучания:
00:33:03
Наличие сканов:
только обложка
Страна-производитель диска (релиза):
USA
Релизёр (источник):
M0p94ok
Доп. инфо:

Hello Young Lovers - студийный альбом певицы Нэнси Уилсон, выпущенный в июле 1962 года на Capitol Records. Альбом поднялся на 4-е место в чарте Billboard Vocal Jazz Albums.

Журнал Billboard отметил, что она «демонстрирует свой собственный, стильный образ с поп-песней на обложке этого альбома поверх пышного струнного хора» и заявил, что «Девушка здесь отлично справляется».

Стивен Кук из Allmusic отметил: Большинство релизов Нэнси Уилсон 60-х для Capitol были высокого качества, в том числе и этот ее четвертый альбом. Hello Young Lovers содержит стандартную программу Уилсон из легких свингеров и баллад, которые демонстрируют ее безупречную формулировку, одновременно демонстрируя роскошные струнные диаграммы Джорджа Ширинга в таких хитах, как "Little Girl Blue" и "Back in Your Own Backyard". Можно также услышать растущий талант Уилсон к вокальной драме, когда она пробуждает различные настроения в "Miss Otis Regrets" и "Little Girl Blue". Ее безупречное сочетание блюзового звучания Дины Вашингтон и серафического тона Сары Воан также проявляется как талант, который полностью раскрылся в «Добро пожаловать в мою любовь» 1967 года. Однако для этой записи удовольствие от прослушивания проявляется в ее фирменном урбанистическом поп-звучании.

Лог проверки качества
foobar2000 1.6.2 / Dynamic Range Meter 1.1.1
log date: 2021-05-13 18:32:19

--------------------------------------------------------------------------------
Analyzed: Nancy Wilson / Hello Young Lovers
--------------------------------------------------------------------------------

DR         Peak         RMS     Duration Track
--------------------------------------------------------------------------------
DR10      -8.23 dB   -20.32 dB      3:03 01-A Good Man Is Hard To Find
DR10      -8.05 dB   -20.37 dB      2:08 02-Hello, Young Lovers
DR9       -7.54 dB   -20.03 dB      2:34 03-Sophisticated Lady
DR10      -8.22 dB   -20.68 dB      2:29 04-When A Woman Loves A Man
DR9       -8.51 dB   -22.05 dB      2:53 05-Little Girl Blue
DR9       -8.77 dB   -20.51 dB      2:48 06-Nina Never Knew
DR9       -9.10 dB   -21.61 dB      2:37 07-You Don't Know What Love Is
DR11      -8.56 dB   -22.04 dB      1:55 08-Put On A Happy Face
DR9       -9.26 dB   -21.53 dB      2:59 09-When Sunny Gets Blue
DR9       -8.93 dB   -21.76 dB      3:15 10-Listen, Little Girl
DR9      -10.53 dB   -23.78 dB      3:29 11-Miss Otis Regrets
DR9       -9.38 dB   -22.04 dB      2:52 12-Back In Your Own Back Yard
--------------------------------------------------------------------------------

Number of tracks:  12
Official DR value: DR9

Samplerate:        44100 Hz
Channels:          2
Bits per sample:   24
Bitrate:           1030 kbps
Codec:             FLAC
================================================================================
No seeders - write personal message to M0p94ok. Any questions - support@pro-jazz.com.
Нет сидеров - пишите в личку M0p94ok. Есть вопросы - support@pro-jazz.com
18:35
88
Нет комментариев. Ваш будет первым!