Поиск

1958 Chet Baker - Chet Baker Sings: It Could Happen To You (2021) {Craft} [24-192]

1958 Chet Baker - Chet Baker Sings: It Could Happen To You (2021) {Craft} [24-192]
Битрейт аудио:
lossless
Доп. инфо:

Формат записи/Источник записи: [TR24][OF]
Наличие водяных знаков: Нет
Год издания: 2021
Издатель (лейбл): Craft Recordings
Продолжительность: 00:35:41
Наличие сканов в содержимом раздачи: Только обложка альбома
Контейнер: FLAC (*.flac)
Тип рипа: tracks
Разрядность: 24/192
Формат: PCM
Количество каналов: 2.0
Источник (релизер): prestomusic.com

Лог проверки качества
foobar2000 1.4.8 / Dynamic Range Meter 1.1.1
log date: 2021-03-07 16:49:47

--------------------------------------------------------------------------------
Analyzed: Chet Baker / Chet Baker Sings: It Could Happen To You
--------------------------------------------------------------------------------

DR         Peak         RMS     Duration Track
--------------------------------------------------------------------------------
DR8       -0.50 dB   -10.61 dB      3:01 01-Do It The Hard Way
DR9       -0.50 dB   -13.40 dB      5:05 02-I'm Old Fashioned
DR9       -0.50 dB   -11.38 dB      2:55 03-You're Driving Me Crazy
DR7       -0.50 dB    -9.68 dB      2:51 04-It Could Happen To You
DR9       -0.50 dB   -11.56 dB      3:28 05-My Heart Stood Still
DR8       -0.50 dB   -11.05 dB      3:05 06-The More I See You
DR11      -0.50 dB   -14.02 dB      5:04 07-Everything Happens To Me
DR9       -0.50 dB   -12.03 dB      3:08 08-Dancing On The Ceiling
DR10      -0.50 dB   -12.46 dB      4:09 09-How Long Has This Been Going On?
DR8       -0.50 dB   -11.34 dB      2:57 10-Old Devil Moon
--------------------------------------------------------------------------------

Number of tracks:  10
Official DR value: DR9
Samplerate:        192000 Hz
Channels:          2
Bits per sample:   24
Bitrate:           6029 kbps
Codec:             FLAC
================================================================================
No seeders - write personal message to M0p94ok. Any questions - support@pro-jazz.com.
Нет сидеров - пишите в личку M0p94ok. Есть вопросы - support@pro-jazz.com
17:48
75
Нет комментариев. Ваш будет первым!