Поиск

2017 Marcus Anderson - Limited Edition {Anderson Music-LLC} [24-44.1]

2017 Marcus Anderson - Limited Edition {Anderson Music-LLC} [24-44.1]
Дата издания диска:
17 марта 2017
Номер по каталогу:
MA009
Носитель:
WEB
Формат:
PCM
Тип рипа:
tracks
Контейнер:
FLAC (*.flac)
Количество каналов:
2.0
Разрядность/ЧД:
24/44,1
Битрейт аудио:
lossless
Время звучания:
00:59:37
Наличие сканов:
только обложка
Наличие водяных знаков:
нет
Страна-производитель диска (релиза):
USA
Релизёр (источник):
M0p94ok

Треклист:

01. Limited Edition feat. Steven J. Collins  04:30
02. Backseat Drivers feat. Adam Hawley  04:18
03. Will Power  03:37
04. Can I Come Over  03:38
05. Understanding feat. Brian Culbertson  04:42
06. Don't Stray Away (Interlude)  01:42
07. Let's Not Wait feat. Nicholas Cole  05:27
08. What If? (Interlude) feat. Tyra Scott  01:30
09. That Feelin' feat. ALUV  06:26
10. The Art Of Gold feat. Showcase  03:23
11. Dandelion  05:28
12. Stalker!  04:39
13. Mel-ow Mood  03:33
14. Give Love feat. Anthony Saunders  06:41

Доп. инфо:

Никогда еще не было так очевидно, что Маркус Андерсон с отличием окончил школу Prince, чем когда это запечатлено в живом исполнении. Здесь Маркус не только придает новый импульс своим песням из своего студийного альбома Limited Edition (который дебютировал на Amazon как бестселлер №1 в Smooth Jazz & Jazz Fusion и №12 в R&B / Soul), но и делает это с особой тщательностью. новая энергия и элегантность. Слушателям повезло испытать очаровательное сценическое мастерство Маркуса и его мастерское руководство, когда он руководит своей большой командой талантливых когорт. Маркус знает, как заставить своих поклонников двигаться, поскольку он мастерски вплетает ностальгические линии классических трогательных мелодий тех, кто вдохновлял его на пути от Майкла Джексона до его наставника Принца, яркое напоминание, почему мы все жаждем зрелища прекрасно исполненного живого выступления . Молодец, Маркус Андерсон! Маэстро-саксофонист Маркус Андерсон (Prince, CeeLo Green, Judith Hill) превратился в выдающегося сольного исполнителя, заняв первое место в чарте Billboard Smooth Jazz, среди прочего, играя на счетах с Ледизи, Лала Хэтэуэй, Брайаном Калбертсоном, Эсперансой Сполдинг, Питером. Уайт, Бони Джеймс, Кирк Уолум, Джеральд Олбрайт, Джордж Дюк, Уинтон Марсалис, Джефф Лорбер, Боб Болдуин и The Sax Pack, и это лишь некоторые из них.

"Один из лучших саксофонистов мира" (Smooth Jazz Daily)

«Маркус знает, как заставить своих поклонников двигаться, поскольку он мастерски вплетает ностальгические линии классических трогательных мелодий ...» (Smooth Jazz Daily)

«... яркое напоминание о том, почему все мы жаждем зрелища красиво исполненного живого выступления». (Smooth Jazz Daily)

https://www.highresaudio.com/en/album/view/438qbw/marcus-anderson-limited-edition

Лог проверки качества
foobar2000 1.6.2 / Dynamic Range Meter 1.1.1
log date: 2021-05-13 15:02:24

--------------------------------------------------------------------------------
Analyzed: Marcus Anderson / Limited Edition
--------------------------------------------------------------------------------

DR         Peak         RMS     Duration Track
--------------------------------------------------------------------------------
DR7        0.00 dB    -7.55 dB      4:30 01-Limited Edition
DR8        0.00 dB    -9.57 dB      4:18 02-Backseat Drivers
DR8        0.00 dB    -9.77 dB      3:38 03-Will Power
DR9        0.00 dB    -9.82 dB      3:38 04-Can I Come Over
DR7        0.00 dB    -8.75 dB      4:42 05-Understanding
DR10       0.00 dB   -12.57 dB      1:42 06-Don't Stray Away (Interlude)
DR9        0.00 dB   -10.49 dB      5:28 07-Let's Not Wait
DR8        0.00 dB   -11.63 dB      1:31 08-What If? (Interlude)
DR9        0.00 dB   -10.28 dB      6:26 09-That Feelin'
DR9        0.00 dB   -10.19 dB      3:23 10-The Art Of Gold
DR11       0.00 dB   -13.34 dB      5:28 11-Dandelion
DR8        0.00 dB   -10.08 dB      4:39 12-Stalker!
DR9        0.00 dB   -10.34 dB      3:34 13-Mel-ow Mood
DR9        0.00 dB   -10.27 dB      6:41 14-Give Love
--------------------------------------------------------------------------------

Number of tracks:  14
Official DR value: DR8

Samplerate:        44100 Hz
Channels:          2
Bits per sample:   24
Bitrate:           1689 kbps
Codec:             FLAC
================================================================================
Приватный:
Нет (DHT включён)
Размер:
682.37 Мб (715,519,571 байт) » файлов: 16
Участники:
5 раздают, 0 качают (5 участников всего)
Внешние участники:
--- [ Обновить ]
No seeders - write personal message to M0p94ok. Нет сидеров - пишите в личку M0p94ok.
15:13
44
Нет комментариев. Ваш будет первым!