Вы используете незарегистрированную версию компонента "Вкладки"!

Поиск

2021 Cassandra Wilson - Moonglow {2xHD} [DSD64]

2021 Cassandra Wilson - Moonglow {2xHD} [DSD64]
Стили:
Издатель (лейбл):
Битрейт аудио:
lossless
Доп. инфо:

Формат записи/Источник записи: [DSD][OF]
Наличие водяных знаков: Нет
Год издания: 2021
Продолжительность: 00:35:57
Наличие сканов в содержимом раздачи: Буклет PDF
Контейнер: DSF (*.dsf)
Тип рипа: tracks
Разрядность: 64 (2,8 MHz/1 Bit)
Формат: DSD
Количество каналов: 2.0
Источник (релизер): hdtracks.com

Лог проверки качества
foobar2000 1.4.8 / Dynamic Range Meter 1.1.1
log date: 2021-03-07 13:52:37

--------------------------------------------------------------------------------
Analyzed: Jim Deangelis / Cassandra Wilson, Moonglow
--------------------------------------------------------------------------------

DR         Peak         RMS     Duration Track
--------------------------------------------------------------------------------
DR13      -6.36 dB   -22.65 dB      7:24 01-Skylark
DR12      -5.75 dB   -21.07 dB      6:13 02-Moonglow
DR14      -8.30 dB   -25.38 dB      5:50 03-Blues Shuffle
DR13      -5.73 dB   -22.29 dB      8:52 04-Two sleepy people
DR13      -6.55 dB   -22.05 dB      7:41 05-Unit 7
--------------------------------------------------------------------------------

Number of tracks:  5
Official DR value: DR13
Samplerate:        2822400 Hz / PCM Samplerate: 176400 Hz
Channels:          2
Bits per sample:   1
Bitrate:           5645 kbps
Codec:             DSD64
================================================================================
Any questions - support@pro-jazz.com. Есть вопросы - support@pro-jazz.com
14:38
101
Нет комментариев. Ваш будет первым!