Поиск

2008 Lancy Falta Gypsy Stream - In the Fields {Bayla, Galileo} [24-44.1]

2008 Lancy Falta Gypsy Stream - In the Fields {Bayla, Galileo} [24-44.1]
Дата записи диска:
13 апреля 2007
Место записи:
Tonart Creation, 87700 Memmingen
Дата издания диска:
15 октября 2008
Номер по каталогу:
Bayla, Galileo Music Communication BAY 003
Носитель:
WEB
Формат:
PCM
Тип рипа:
tracks
Контейнер:
FLAC (*.flac)
Количество каналов:
2.0
Разрядность/ЧД:
24/44,1
Битрейт аудио:
lossless
Время звучания:
00:44:00
Наличие сканов:
только обложка
Наличие водяных знаков:
нет
Страна-производитель диска (релиза):
Germany
Релизёр (источник):
M0p94ok

Треклист:

01. Bobby 'S Rumba  02:40
02. Tschawo  03:55
03. Dona Lee  03:00
04. Du Djial Mugal Man Gogares  03:23
05. Down Here on the Ground  05:59
06. Sweet Georgia Brown  05:41
07. Du Djaijal  02:38
08. In the Fields  03:38
09. Teen Town  03:58
10. O Letschdo Gurgo  05:26
11. Gypsy Waltz  03:37

Лог проверки качества
foobar2000 1.6.2 / Dynamic Range Meter 1.1.1
log date: 2021-05-13 13:35:14

--------------------------------------------------------------------------------
Analyzed: Lancy Falta Gypsy Stream / In the Fields
--------------------------------------------------------------------------------

DR         Peak         RMS     Duration Track
--------------------------------------------------------------------------------
DR11       0.00 dB   -13.40 dB      2:41 01-Bobby 'S Rumba
DR11       0.00 dB   -15.28 dB      3:55 02-Tschawo
DR10       0.00 dB   -11.69 dB      3:01 03-Dona Lee
DR9        0.00 dB   -11.27 dB      3:24 04-Du Djial Mugal Man Gogares
DR9        0.00 dB   -10.49 dB      6:00 05-Down Here on the Ground
DR13       0.00 dB   -16.03 dB      5:41 06-Sweet Georgia Brown
DR10      -0.71 dB   -12.55 dB      2:38 07-Du Djaijal
DR11       0.00 dB   -14.28 dB      3:39 08-In the Fields
DR14       0.00 dB   -16.95 dB      3:59 09-Teen Town
DR11      -0.05 dB   -14.75 dB      5:27 10-O Letschdo Gurgo
DR12       0.00 dB   -13.80 dB      3:37 11-Gypsy Waltz
--------------------------------------------------------------------------------

Number of tracks:  11
Official DR value: DR11

Samplerate:        44100 Hz
Channels:          2
Bits per sample:   24
Bitrate:           749 kbps
Codec:             FLAC
================================================================================
Приватный:
Нет (DHT включён)
Размер:
230.10 Мб (241,281,283 байт) » файлов: 13
Участники:
4 раздают, 0 качают (4 участников всего)
Внешние участники:
--- [ Обновить ]
No seeders - write personal message to M0p94ok. Нет сидеров - пишите в личку M0p94ok.
13:55
49
Нет комментариев. Ваш будет первым!