Вы используете незарегистрированную версию компонента "Вкладки"!

Поиск

1954 Sarah Vaughan - Sarah Vaughan (2020) {Verve} [24-96]

1954 Sarah Vaughan - Sarah Vaughan (2020) {Verve} [24-96]
Стили:
Дата издания диска:
12 января 1954
Издатель (лейбл):
Битрейт аудио:
lossless
Доп. инфо:

Формат записи/Источник записи: [TR24][OF]
Издание: Remastered
Год издания/переиздания диска: 1954/2020
Продолжительность: 00:45:30
Наличие сканов в содержимом раздачи: Нет

Контейнер: FLAC (*.flac)
Тип рипа: tracks
Разрядность: 24/96
Количество каналов: 2.0

Источник (релизер): HDTracks

Лог проверки качества
foobar2000 1.4.3 / Dynamic Range Meter 1.1.1
log date: 2021-03-03 19:39:31

--------------------------------------------------------------------------------
Analyzed: Sarah Vaughan / Sarah Vaughan
--------------------------------------------------------------------------------

DR         Peak         RMS     Duration Track
--------------------------------------------------------------------------------
DR10      -1.18 dB   -14.16 dB      4:02 01-Lullaby Of Birdland
DR10      -1.09 dB   -15.91 dB      6:20 02-April In Paris
DR9       -0.42 dB   -12.38 dB      4:13 03-He's My Guy
DR12      -0.26 dB   -15.24 dB      5:53 04-Jim
DR10      -0.85 dB   -12.38 dB      4:43 05-You're Not The Kind
DR9       -0.76 dB   -15.32 dB      4:50 06-Embraceable You
DR9       -2.26 dB   -14.77 dB      5:10 07-I'm Glad There Is You
DR9       -1.50 dB   -14.06 dB      5:46 08-September Song
DR10      -0.71 dB   -12.80 dB      4:55 09-It's Crazy
--------------------------------------------------------------------------------

Number of tracks:  9
Official DR value: DR10

Samplerate:        96000 Hz
Channels:          2
Bits per sample:   24
Bitrate:           1657 kbps
Codec:             FLAC
================================================================================
Any questions - support@pro-jazz.com. Есть вопросы - support@pro-jazz.com
13:12
110
Нет комментариев. Ваш будет первым!