Поиск

2019 Karin Meier's Forest Radio - From Sky to Earth and Back {QFTF} [24-96]

2019 Karin Meier's Forest Radio - From Sky to Earth and Back {QFTF} [24-96]
Стили:
Дата издания диска:
28 июня 2019
Носитель:
WEB
Формат:
PCM
Тип рипа:
tracks
Контейнер:
FLAC (*.flac)
Количество каналов:
2.0
Разрядность/ЧД:
24/96
Битрейт аудио:
lossless
Время звучания:
00:42:14
Наличие сканов:
только обложка
Наличие водяных знаков:
нет
Страна-производитель диска (релиза):
Germany
Релизёр (источник):
M0p94ok

Треклист:

01. Intro  00:55
02. Come Walk with Me  03:59
03. P  05:17
04. Summer Day  05:43
05. Blow Wind Blow  05:27
06. Margaretha  04:28
07. No Wonder  03:59
08. Comfy Wall  03:27
09. Forever Young  04:28
10. Flueg I Devo  04:31

Доп. инфо:

Певица Карин Мейер с ее чрезвычайно многогранным голосом и известные инструменталисты швейцарской джазовой сцены нашли свое собственное звучание с музыкой, словами и многим другим, которое бродит по различным жанрам и слушателям в песенных мирах от земной повседневной жизни до небесных стихов. На ее новом альбоме «From Sky To Earth And Back» снова есть спотыкание, баловство, игра, звонки и разговоры. И всегда есть мелодии - горько красивые и удивительно злые.

https://www.prostudiomasters.com/album/page/35146

https://www.qobuz.com/fi-en/album/from-sky-to-earth-and-back-karin-meiers-forest-radio/eej27i69jxkpa

Лог проверки качества
foobar2000 1.6.2 / Dynamic Range Meter 1.1.1
log date: 2021-05-13 11:41:48

--------------------------------------------------------------------------------
Analyzed: Karin Meier's Forest Radio / From Sky to Earth and Back
--------------------------------------------------------------------------------

DR         Peak         RMS     Duration Track
--------------------------------------------------------------------------------
DR11      -3.93 dB   -19.87 dB      0:55 01-Intro
DR9       -0.31 dB   -12.57 dB      3:59 02-Come Walk with Me
DR9       -0.30 dB   -12.17 dB      5:17 03-P
DR8       -0.31 dB   -11.63 dB      5:43 04-Summer Day
DR9       -0.30 dB   -12.50 dB      5:28 05-Blow Wind Blow
DR8       -0.31 dB   -11.22 dB      4:29 06-Margaretha
DR14      -0.42 dB   -17.12 dB      4:00 07-No Wonder
DR9       -0.30 dB   -11.21 dB      3:28 08-Comfy Wall
DR8       -0.31 dB   -11.97 dB      4:29 09-Forever Young
DR11      -0.31 dB   -14.91 dB      4:31 10-Flueg I Devo
--------------------------------------------------------------------------------

Number of tracks:  10
Official DR value: DR10

Samplerate:        96000 Hz
Channels:          2
Bits per sample:   24
Bitrate:           2760 kbps
Codec:             FLAC
================================================================================
Приватный:
Нет (DHT включён)
Размер:
859.71 Мб (901,475,622 байт) » файлов: 12
Участники:
4 раздают, 0 качают (4 участников всего)
Внешние участники:
--- [ Обновить ]
No seeders - write personal message to M0p94ok. Нет сидеров - пишите в личку M0p94ok.
12:16
36
Нет комментариев. Ваш будет первым!