Поиск

2014 VA - Accuphase Special Sound Selection 3 {King} [DSD64 ISO]

2014 VA - Accuphase Special Sound Selection 3 {King} [DSD64 ISO]
Издатель (лейбл):
Номер по каталогу:
SCD-3 (TGCS-8206 / TGGS-248)
Битрейт аудио:
lossless
Доп. инфо:

Формат записи/Источник записи: [SACD-R][OF]
Наличие водяных знаков: Нет
Издание: Sampler
Год издания диска: 2014
Жанр: Jazz, Classical
Продолжительность: 01:13:36
Наличие сканов в содержимом раздачи: Только обложка альбома

Контейнер: ISO (*.iso)
Тип рипа: image
Разрядность: 64(2,8 MHz/1 Bit)
Формат: DSD
Количество каналов: 2.0

Лог проверки качества
foobar2000 1.6.4 / Dynamic Range Meter 1.1.1
log date: 2021-03-06 20:32:48

--------------------------------------------------------------------------------
Analyzed: Bavarian State Orchestra/Zubin Mehta,Conductor / Accuphase special sound selection 3 (1)
          Carmina Quartett / Accuphase special sound selection 3 (2)
          channel Identification,Voice in-Phase,Voice Out-of-Phase / Accuphase special sound selection 3 (3)
--------------------------------------------------------------------------------

DR         Peak         RMS     Duration Track
--------------------------------------------------------------------------------
DR11      -4.24 dB   -20.42 dB      5:40 01-Richard Wagner:Ride of the Valkyries
DR12     -10.54 dB   -27.95 dB      5:51 06-Wolfgang Amadeus Mozart:String Quartet in C major K.465"Dissonance"-VI.Allegro molto
DR17     -11.24 dB   -31.50 dB      1:13 15-TECHNICAL TRACK
--------------------------------------------------------------------------------

Number of tracks:  3
Official DR value: DR13

Samplerate:        2822400 Hz / PCM Samplerate: 352800 Hz
Channels:          2
Bits per sample:   1
Bitrate:           5645 kbps
Codec:             DSD64
================================================================================

--------------------------------------------------------------------------------
Statistics for: 13-BABY I LOVE YOUR WAY
Number of samples: 784852992
Duration: 4:38
--------------------------------------------------------------------------------

                 Left              Right

Peak Value:    -14.15 dB   ---    -13.81 dB
Avg RMS:       -24.20 dB   ---    -24.09 dB
DR channel:      8.98 dB   ---      9.03 dB
--------------------------------------------------------------------------------

Official DR Value: DR9

Samplerate:        2822400 Hz / PCM Samplerate: 352800 Hz
Channels:          2
Bits per sample:   1
Bitrate:           5645 kbps
Codec:             DSD64
================================================================================
--------------------------------------------------------------------------------
Statistics for: 05-Wolfgang Amadeus Mozart:Rond "Alla Turca"(arr.A.N.Tarkmann)
Number of samples: 664204800
Duration: 3:55
--------------------------------------------------------------------------------

                 Left              Right

Peak Value:     -4.87 dB   ---     -8.28 dB
Avg RMS:       -23.94 dB   ---    -25.06 dB
DR channel:     12.63 dB   ---     13.32 dB
--------------------------------------------------------------------------------

Official DR Value: DR13

Samplerate:        2822400 Hz / PCM Samplerate: 352800 Hz
Channels:          2
Bits per sample:   1
Bitrate:           5645 kbps
Codec:             DSD64
================================================================================
--------------------------------------------------------------------------------
Analyzed: Fredy Kempf,Piano / Accuphase special sound selection 3 (1)
          Isabelle Faust,Violin/Alexander Melnikov,Piano / Accuphase special sound selection 3 (2)
          Joey DeFrancesco,Hammond B-3 / Accuphase special sound selection 3 (3)
--------------------------------------------------------------------------------

DR         Peak         RMS     Duration Track
--------------------------------------------------------------------------------
DR13      -5.99 dB   -26.82 dB      4:30 02-Fredric Chopin:Fantaisie-Impromptu
DR15      -5.32 dB   -24.95 dB      6:11 03-Ludwig van Beethoven:Violin Sonata no.5 "Spring"-VI.Rond.Allegro ma non troppo
DR12      -8.85 dB   -23.94 dB      7:47 12-STARDUST
--------------------------------------------------------------------------------

Number of tracks:  3
Official DR value: DR13

Samplerate:        2822400 Hz / PCM Samplerate: 352800 Hz
Channels:          2
Bits per sample:   1
Bitrate:           5645 kbps
Codec:             DSD64
================================================================================

--------------------------------------------------------------------------------
Analyzed: Juliane Banse,Soprano / Accuphase special sound selection 3 (1)
          London Symphny Orchestra/Sir Colin Davis,Conductor / Accuphase special sound selection 3 (2)
          Marta Klimasara/Jurgen Sptschka,Marimbaphon / Accuphase special sound selection 3 (3)
--------------------------------------------------------------------------------

DR         Peak         RMS     Duration Track
--------------------------------------------------------------------------------
DR12      -7.25 dB   -25.55 dB      2:18 04-Giacomo Puccini:Gianni Schicchi-"O mio babbino caro"
DR13      -5.71 dB   -24.44 dB     11:27 09-Antonin Dvorak:Symphony No.9 "From the New World"-VI.Allegro con fuoco
DR11      -8.90 dB   -22.99 dB      3:44 10-Astor Piazzolla:Libertango
--------------------------------------------------------------------------------

Number of tracks:  3
Official DR value: DR12

Samplerate:        2822400 Hz / PCM Samplerate: 352800 Hz
Channels:          2
Bits per sample:   1
Bitrate:           5645 kbps
Codec:             DSD64
================================================================================

--------------------------------------------------------------------------------
Analyzed: Matthias Goerne,Baritone/Andreas Haefliger,Piano / Accuphase special sound selection 3 (1)
          Royal Concertgebouw Orchestra/Mariss Jansons,Conductor / Accuphase special sound selection 3 (2)
          Virginie Teychene,Vocal / Accuphase special sound selection 3 (3)
--------------------------------------------------------------------------------

DR         Peak         RMS     Duration Track
--------------------------------------------------------------------------------
DR12      -6.19 dB   -23.34 dB      3:43 07-Franz Schubert:Erlkonig D.328
DR14      -4.19 dB   -22.17 dB      4:21 08-Wolfgang Amadeus Mozart:Requiem in D minor K.626-Kyrie,Dies irae
DR10     -11.56 dB   -24.03 dB      4:26 11-TIGHT
--------------------------------------------------------------------------------

Number of tracks:  3
Official DR value: DR12

Samplerate:        2822400 Hz / PCM Samplerate: 352800 Hz
Channels:          2
Bits per sample:   1
Bitrate:           5645 kbps
Codec:             DSD64
================================================================================
No seeders - write personal message to M0p94ok. Any questions - support@pro-jazz.com.
Нет сидеров - пишите в личку M0p94ok. Есть вопросы - support@pro-jazz.com
22:06
88
Нет комментариев. Ваш будет первым!