Поиск

1977 Jack DeJohnette's Directions - New Rags (2019) {ECM} [24-96]

1977 Jack DeJohnette's Directions - New Rags (2019) {ECM} [24-96]
Стили:
Дата записи диска:
1 мая 1977
Место записи:
Tonstudio Bauer, Ludwigsburg, Germany
Издатель (лейбл):
Номер по каталогу:
ECM 1103
Носитель:
WEB
Формат:
PCM
Тип рипа:
tracks
Контейнер:
FLAC (*.flac)
Количество каналов:
2.0
Разрядность/ЧД:
24/96
Битрейт аудио:
lossless
Время звучания:
00:40:56
Наличие сканов:
только обложка
Страна-производитель диска (релиза):
Germany
Релизёр (источник):
M0p94ok
Доп. инфо:

Группа барабанщика Джека ДеДжонетта «Directions» была довольно необычным квартетом. С лидером, который играл на фортепиано и совмещал свои творческие способности с гитаристом Джоном Аберкромби, Алексом Фостером (тенор и сопрано) и басистом Майком Ричмондом, это была явно талантливая группа звезд. Композиции на New Rags (все ДеДжонетт или Фостер) сложные, довольно сухие и непредсказуемые, ансамбль не стесняется использовать электронику и тонкое влияние рока. Несложно понять, почему эта группа не выжила, но музыка её ещё свежа.

https://www.prostudiomasters.com/album/page/37967

Лог проверки качества
foobar2000 1.6.2 / Dynamic Range Meter 1.1.1
log date: 2021-05-12 21:53:00

--------------------------------------------------------------------------------
Analyzed: Jack DeJohnette's Directions / New Rags
--------------------------------------------------------------------------------

DR         Peak         RMS     Duration Track
--------------------------------------------------------------------------------
DR13      -1.45 dB   -19.87 dB     11:30 01-Minya's The Mooch
DR10      -3.13 dB   -20.14 dB      3:43 02-Lydia
DR13      -2.00 dB   -17.87 dB      6:07 03-Flys
DR12      -1.66 dB   -17.63 dB      9:08 04-New Rags
DR12      -1.42 dB   -16.28 dB     10:29 05-Steppin' Thru
--------------------------------------------------------------------------------

Number of tracks:  5
Official DR value: DR12

Samplerate:        96000 Hz
Channels:          2
Bits per sample:   24
Bitrate:           3050 kbps
Codec:             FLAC
================================================================================
No seeders - write personal message to M0p94ok. Any questions - support@pro-jazz.com.
Нет сидеров - пишите в личку M0p94ok. Есть вопросы - support@pro-jazz.com
22:00
104
Нет комментариев. Ваш будет первым!