Поиск

2000 VA - Opus3 Showcase {Opus 3} [DSD64 ISO]

2000 VA - Opus3 Showcase {Opus 3} [DSD64 ISO]
Битрейт аудио:
lossless
Треклист:

01. Benny Waters - I Can't Get It Started
02. Eric Bibb - Where The Green Grass Grows
03. Tiny Island - Vaquero
04. Lars Erstrand - The Talk Of The Town
05. Kjell Öhman - Blues Opus 3
06. Gösta Rundqvist Trio - The Meaning Of The Blues
07. Cirrus - O Ango Tango
08. The Swedish Jazz Kings - Comes Love
09. Eric Bibb - I Want Jesus To Walk With Me
10. The Erik Westberg Vocal Ensemble - Sanctus
11. Stockholm Guitar Trio - Orientale
12. Omnibus Wind Ensemble - Overture To Carmen
13. Zetterqvist String Quartet String Quartet No. 6, 2nd Movement
14. Mattias Wager And Anders Åstrand- Bolero

Доп. инфо:

Формат записи/Источник записи: [SACD-R][OF]
Наличие водяных знаков: Нет
Издание: Sampler
Год издания диска: 2000
Жанр: Jazz, Blues, Classical, Folk, World
Издатель (лейбл): Opus 3 Records ‎– [CD 21000]
Продолжительность: 01:16:07
Наличие сканов в содержимом раздачи: Да (сканы)

Контейнер: ISO (*.iso)
Тип рипа: image
Разрядность: 64(2,8 MHz/1 Bit)
Формат: DSD
Количество каналов: 2.0

Лог проверки качества
foobar2000 1.6.4 / Dynamic Range Meter 1.1.1
log date: 2021-03-01 18:27:26

--------------------------------------------------------------------------------
Analyzed: Various / Showcase
--------------------------------------------------------------------------------

DR         Peak         RMS     Duration Track
--------------------------------------------------------------------------------
DR15      -8.04 dB   -27.82 dB      5:16 01-I Can't Get Started
DR14      -6.75 dB   -24.59 dB      4:29 02-Where The Green Grass Grows
DR16      -6.35 dB   -25.71 dB      7:12 03-Vaquero
DR13      -9.07 dB   -26.66 dB      6:59 04-The Talk Of The Town
DR10      -8.31 dB   -22.07 dB      4:34 05-Blues Opus 3
DR15      -8.75 dB   -27.90 dB      8:42 06-The Meaning Of The Blues
DR12      -6.98 dB   -24.51 dB      4:43 07-O Ango Tango
DR14      -7.79 dB   -26.14 dB      5:03 08-Comes Love
DR14      -9.35 dB   -29.90 dB      4:09 09-I Want Jesus To Walk With Me
DR12     -12.47 dB   -31.13 dB      3:46 10-Sanctus
DR14      -8.84 dB   -29.97 dB      3:15 11-Orientale
DR12      -8.66 dB   -25.02 dB      2:17 12-Overture To Carmen
DR14      -8.56 dB   -29.92 dB      2:47 13-String Quartet no.6, 2nd movement
DR15      -7.79 dB   -30.56 dB     12:57 14-Bolero
--------------------------------------------------------------------------------

Number of tracks:  14
Official DR value: DR14

Samplerate:        2822400 Hz / PCM Samplerate: 352800 Hz
Channels:          2
Bits per sample:   1
Bitrate:           5645 kbps
Codec:             DSD64
================================================================================
Приватный:
Нет (DHT включён)
Размер:
3.09 Гб (3,319,255,640 байт) » файлов: 14
Участники:
0 раздают, 0 качают (0 участников всего)
Внешние участники:
12 раздают, 4 качают (16 участников всего) [ Обновить ]
No seeders - write personal message to M0p94ok. Any questions - support@pro-jazz.com.
Нет сидеров - пишите в личку M0p94ok. Есть вопросы - support@pro-jazz.com
19:20
52
Нет комментариев. Ваш будет первым!