Поиск

2009 Ibrahim Maalouf - Diachronism {Mi'ster} [24-44.1]

2009 Ibrahim Maalouf - Diachronism {Mi'ster} [24-44.1]
Место записи:
Ain El Abou Village; Beirut; New York, NY; Studio Babel, Montreuil, Paris, France
Дата издания диска:
20 сентября 2009
Номер по каталогу:
IBM2
Носитель:
WEB
Формат:
PCM
Тип рипа:
tracks
Контейнер:
FLAC (*.flac)
Количество каналов:
2.0
Разрядность/ЧД:
24/44,1
Битрейт аудио:
lossless
Время звучания:
00:55:27
Наличие сканов:
буклет pdf
Наличие водяных знаков:
нет
Страна-производитель диска (релиза):
France
Релизёр (источник):
M0p94ok

Треклист:

01. Pouh Hia (5:15)
02. NAGA (Feat. Adnan Jubran) (5:56)
03. Ya Ha La (6:15)
04. Trumpet - Saz Improvisation (Feat. Bijan Chemirani) (7:20)
05. Hyu Man (6:29)
06. Intro (old radio of a Lebanese mountain) (0:52)
07. Esse Emme (4:51)
08. Intro (winners of 2007-2009 tour) (1:03)
09. BIZARRE (Feat. Matthieu Chedid) (3:21)
10. MAKE CE (Feat. Lollibob) (5:58)
11. Trumpet - Piano Improvisation (Feat. Jacky Terrasson) (3:37)
12. SOUMA HIA (Feat. Jacky Terrasson) (4:32)

Лог проверки качества
foobar2000 1.6.2 / Dynamic Range Meter 1.1.1
log date: 2021-05-12 14:48:33

--------------------------------------------------------------------------------
Analyzed: Ibrahim Maalouf / Diachronism
--------------------------------------------------------------------------------

DR         Peak         RMS     Duration Track
--------------------------------------------------------------------------------
DR12      -0.26 dB   -16.80 dB      5:16 01, 01-Pouh Hia
DR10      -0.26 dB   -14.64 dB      5:56 02, 02-Naga
DR7       -0.23 dB   -12.05 dB      6:16 03, 03-Ya Ha La
DR11      -2.85 dB   -17.84 dB      7:20 04, 04-Trumpet / Saz Improvisation
DR10      -0.26 dB   -13.16 dB      6:27 05, 05-Hyu Man
DR16      -0.26 dB   -20.96 dB      0:52 06, 06-Intro (Old Radio of a Lebanese Mountain)
DR9       -0.24 dB   -11.98 dB      4:52 07, 07-Esse Emme
DR10      -3.32 dB   -15.28 dB      1:03 08, 08-Intro (Winners of 2007-2009 Tour)
DR10      -0.23 dB   -12.66 dB      3:21 09, 09-Bizarre
DR11      -0.25 dB   -14.13 dB      5:57 10, 10-Make Ce
DR14      -2.00 dB   -20.73 dB      3:37 11, 11-Trumpet / Piano Improvisation
DR10      -0.25 dB   -14.22 dB      4:30 12, 12-Souma Hia
--------------------------------------------------------------------------------

Number of tracks:  12
Official DR value: DR11

Samplerate:        44100 Hz
Channels:          2
Bits per sample:   24
Bitrate:           1451 kbps
Codec:             FLAC
================================================================================
Приватный:
Нет (DHT включён)
Размер:
566.12 Мб (593,619,155 байт) » файлов: 15
Участники:
5 раздают, 0 качают (5 участников всего)
Внешние участники:
--- [ Обновить ]
No seeders - write personal message to M0p94ok. Any questions - support@pro-jazz.com.
Нет сидеров - пишите в личку M0p94ok. Есть вопросы - support@pro-jazz.com
15:03
41
Нет комментариев. Ваш будет первым!