Поиск

2021 Gretchen Parlato - Flor {Edition} [24-88.2]

2021 Gretchen Parlato - Flor {Edition} [24-88.2]
Стили:
Издатель (лейбл):
Битрейт аудио:
lossless
Доп. инфо:

Формат записи/Источник записи: [TR24][OF]
Год издания/переиздания диска: 2021
Продолжительность: 00:46:39
Наличие сканов в содержимом раздачи: Нет

Контейнер: FLAC (*.flac)
Тип рипа: tracks
Разрядность: 24/88,2
Количество каналов: 2.0

Источник (релизер): HIGHRESAUDIO

Лог проверки качества
foobar2000 1.4.3 / Dynamic Range Meter 1.1.1
log date: 2021-03-06 11:53:11

--------------------------------------------------------------------------------
Analyzed: Gerald Clayton / Flor (1)
          Gretchen Parlato / Flor (2-9)
--------------------------------------------------------------------------------

DR         Peak         RMS     Duration Track
--------------------------------------------------------------------------------
DR7       -0.92 dB    -9.45 dB      4:11 02-Sweet Love
DR6       -0.95 dB    -9.02 dB      5:56 01-É Preciso Perdoar
DR7       -0.94 dB    -9.59 dB      4:11 03-Magnus
DR5       -0.97 dB    -8.66 dB      4:33 04-Rosa
DR7       -0.93 dB   -10.89 dB      5:55 05-What Does a Lion Say?
DR8       -0.95 dB   -10.80 dB      4:11 06-Roy Allan
DR7       -0.94 dB    -9.96 dB      6:03 07-Wonderful
DR9       -0.97 dB   -12.67 dB      5:46 08-Cello Suite No. 1 BWV 1007 Minuet I II
DR7       -0.94 dB   -10.58 dB      5:58 09-No Plan
--------------------------------------------------------------------------------

Number of tracks:  9
Official DR value: DR7

Samplerate:        88200 Hz
Channels:          2
Bits per sample:   24
Bitrate:           2768 kbps
Codec:             FLAC
================================================================================
No seeders - write personal message to M0p94ok. Any questions - support@pro-jazz.com.
Нет сидеров - пишите в личку M0p94ok. Есть вопросы - support@pro-jazz.com
14:38
84
Нет комментариев. Ваш будет первым!