Поиск

2019 Hackney Colliery Band - Collaborations, Vol. One {Veki} [24-48]

2019 Hackney Colliery Band - Collaborations, Vol. One {Veki} [24-48]
Дата издания диска:
7 июня 2019
Номер по каталогу:
HCB005
Носитель:
WEB
Формат:
PCM
Тип рипа:
tracks
Контейнер:
FLAC (*.flac)
Количество каналов:
2.0
Разрядность/ЧД:
24/48
Битрейт аудио:
lossless
Время звучания:
00:52:36
Наличие сканов:
только обложка
Страна-производитель диска (релиза):
UK
Релизёр (источник):
M0p94ok
Лог проверки качества
foobar2000 1.3.16 / Dynamic Range Meter 1.1.1
log date: 2019-06-07 02:48:34

--------------------------------------------------------------------------------
Analyzed: Hackney Colliery Band / Collaborations: Volume One
--------------------------------------------------------------------------------

DR         Peak         RMS     Duration Track
--------------------------------------------------------------------------------
DR8       -0.30 dB    -9.59 dB      4:09 01-Mm Mm
DR8       -0.30 dB   -10.92 dB      5:21 02-Snowfire
DR9       -0.30 dB   -11.19 dB      4:00 03-Ricochet
DR9       -0.30 dB   -11.51 dB      2:31 04-Why Yellow
DR8       -0.30 dB    -9.74 dB      3:35 05-Hypothetical
DR9       -0.30 dB   -11.48 dB      5:42 06-Netsanet
DR8       -0.30 dB   -10.02 dB      3:30 07-Without You
DR8       -0.30 dB   -10.21 dB      3:53 08-Crushing Lactic
DR9       -0.30 dB   -10.29 dB      4:04 09-What's Gone Before
DR9       -0.30 dB   -12.41 dB      9:39 10-Climbing Up My Own Life Until I Die
DR8       -0.30 dB   -11.74 dB      6:11 11-Derashe
--------------------------------------------------------------------------------

Number of tracks:  11
Official DR value: DR8

Samplerate:        48000 Hz
Channels:          2
Bits per sample:   24
Bitrate:           1669 kbps
Codec:             FLAC
================================================================================
No seeders - write personal message to M0p94ok. Any questions - support@pro-jazz.com.
Нет сидеров - пишите в личку M0p94ok. Есть вопросы - support@pro-jazz.com
14:33
89
Нет комментариев. Ваш будет первым!