Поиск

1962 Chet Baker - Chet In Italy (2019) {RevOla} [24-44.1]

1962 Chet Baker - Chet In Italy (2019) {RevOla} [24-44.1]
Дата записи диска:
15 января 1962
Место записи:
Rome, Italy
Дата издания диска:
13 июня 2019
Издатель (лейбл):
Битрейт аудио:
lossless

Треклист:

01 - Well You Needn't 06:24
02 - These Foolish Things 04:59
03 - Barbados 08:30
04 - Star Eyes 07:01
05 - Somewhere Over The Rainbow 03:31
06 - Pent-Up House 06:54
07 - Ballata in Forma di Blues 10:06
08 - Blues in the Closet 07:43

Доп. инфо:

Формат записи/Источник записи: [TR24][OF]
Издание: Remastered
Год издания/переиздания диска: 2019
Издатель (лейбл): RevOla
Продолжительность: 00:55:08
Наличие сканов в содержимом раздачи: Нет

Контейнер: FLAC (*.flac)
Тип рипа: tracks
Разрядность: 24/44,1
Количество каналов: 2.0

Источник (релизер): Qobuz

Лог проверки качества
foobar2000 1.4.3 / Dynamic Range Meter 1.1.1
log date: 2021-02-21 14:50:53

--------------------------------------------------------------------------------
Analyzed: Chet Baker / Chet In Italy, 1962
--------------------------------------------------------------------------------

DR         Peak         RMS     Duration Track
--------------------------------------------------------------------------------
DR13      -2.71 dB   -19.39 dB      6:25 01, 01-Well You Needn't
DR14      -3.25 dB   -23.22 dB      4:59 02, 02-These Foolish Things
DR13      -2.32 dB   -19.36 dB      8:31 03, 03-Barbados
DR14      -3.56 dB   -21.51 dB      7:02 04, 04-Star Eyes
DR13      -4.77 dB   -23.71 dB      3:31 05, 05-Somewhere Over The Rainbow
DR12      -2.07 dB   -19.01 dB      6:54 06, 06-Pent-Up House
DR14      -3.46 dB   -23.01 dB     10:07 07, 07-Ballata in Forma di Blues
DR13      -2.07 dB   -19.76 dB      7:43 08, 08-Blues in the Closet
--------------------------------------------------------------------------------

Number of tracks:  8
Official DR value: DR13

Samplerate:        44100 Hz
Channels:          2
Bits per sample:   24
Bitrate:           1488 kbps
Codec:             FLAC
================================================================================
Приватный:
Нет (DHT включён)
Размер:
561.10 Мб (588,359,203 байт) » файлов: 13
Участники:
0 раздают, 0 качают (0 участников всего)
Внешние участники:
7 раздают, 2 качают (9 участников всего) [ Обновить ]
No seeders - write personal message to M0p94ok. Any questions - support@pro-jazz.com.
Нет сидеров - пишите в личку M0p94ok. Есть вопросы - support@pro-jazz.com
13:30
37
Нет комментариев. Ваш будет первым!