Поиск

2015 Wayne Horvitz - Some Places Are Forever Afternoon (11 Places For Richard Hugo) {Songlines} [24-96]

2015 Wayne Horvitz - Some Places Are Forever Afternoon (11 Places For Richard Hugo) {Songlines} [24-96]
Место записи:
Studio Litho, Seattle
Дата издания диска:
3 июля 2015
Носитель:
WEB
Формат:
PCM
Тип рипа:
tracks
Контейнер:
FLAC (*.flac)
Количество каналов:
2.0
Разрядность/ЧД:
24/96
Битрейт аудио:
lossless
Время звучания:
00:58:05
Наличие сканов:
буклет pdf
Страна-производитель диска (релиза):
Canada
Релизёр (источник):
M0p94ok
Лог проверки качества
foobar2000 1.3.16 / Dynamic Range Meter 1.1.1
log date: 2019-06-06 02:09:05

--------------------------------------------------------------------------------
Analyzed: Wayne Horvitz / Some Places Are Forever Afternoon (11 Places For Richard Hugo)
--------------------------------------------------------------------------------

DR         Peak         RMS     Duration Track
--------------------------------------------------------------------------------
DR12      -0.10 dB   -13.62 dB      3:40 01-Money or a story (The Milltown Union Bar)
DR12      -0.51 dB   -15.96 dB      4:27 02-those who remain are the worst (Three Stops to Ten Sleep)
DR13      -0.25 dB   -17.27 dB      4:48 03-you drink until you are mayor (Dixon)
DR10      -0.10 dB   -13.05 dB      3:46 04-Nothing dies as slowly as a scene (Death of the Kapowsin Tavern)
DR10      -0.10 dB   -13.58 dB      5:10 05-all weather is yours no matter how vulgar' (Fairfield)
DR11      -0.10 dB   -14.49 dB      5:59 06-the beautiful wives (Missoula Softball Tournament)
DR12      -0.10 dB   -14.13 dB      2:24 07-For Jim and Lois Welch (Cataldo Mission)
DR11      -0.10 dB   -14.70 dB      5:23 08-in some other home (The Only Bar in Dixon)
DR12      -0.10 dB   -15.96 dB     10:32 09-The car that brought you here still runs (Degrees of Gray in Philipsburg)
DR12      -0.10 dB   -14.08 dB      3:32 10-last place there (for Richard Hugo)
DR10      -0.10 dB   -12.89 dB      4:20 11-You must have strayed hours (Driving Montana)
DR12      -1.23 dB   -16.02 dB      4:14 12-Some places are forever afternoon (West Marginal Way)
--------------------------------------------------------------------------------

Number of tracks:  12
Official DR value: DR11

Samplerate:        96000 Hz
Channels:          2
Bits per sample:   24
Bitrate:           2882 kbps
Codec:             FLAC
================================================================================
No seeders - write personal message to M0p94ok. Any questions - support@pro-jazz.com.
Нет сидеров - пишите в личку M0p94ok. Есть вопросы - support@pro-jazz.com
00:26
68
Нет комментариев. Ваш будет первым!