Поиск

2019 Miguel Zenon - Sonero (The Music Of Ismael Rivera) {Miel Music} [24-44.1]

2019 Miguel Zenon - Sonero (The Music Of Ismael Rivera) {Miel Music} [24-44.1]
Стили:
Место записи:
The Power Station New England, Waterford, CT
Дата издания диска:
30 августа 2019
Битрейт аудио:
lossless

Треклист:

01. Intro / Maelo a Capella (01:25)
02. Quítate de la Vía, Perico (07:08)
03. Las Tumbas (07:41)
04. El Negro Bembón (08:17)
05. La Gata Montesa (07:16)
06. Traigo Salsa (05:13)
07. Las Caras Lindas (07:41)
08. Hola (04:41)
09. Colobó (05:59)
10. Si Te Contara (06:40)
11. El Nazareno (08:03)

Доп. инфо:

Формат записи/Источник записи: [TR24][OF]
Наличие водяных знаков: Нет
Год издания/переиздания диска: 2019
Издатель (лейбл): Miel Music
Продолжительность: 01:10:02
Наличие сканов в содержимом раздачи: Нет

Контейнер: FLAC (*.flac)
Тип рипа: tracks
Разрядность: 24/44,1
Формат: PCM
Количество каналов: 2.0

Источник (релизер): WEB (Igor_O)

Лог проверки качества
foobar2000 1.4.6 / Замер динамического диапазона (DR) 1.1.1
Дата отчёта:  2019-12-02 09:02:22

--------------------------------------------------------------------------------
Анализ:   Miguel Zenón / Sonero: The Music of Ismael Rivera
--------------------------------------------------------------------------------

DR         Пики         RMS           Продолжительность трека
--------------------------------------------------------------------------------
DR11      -2.63 дБ   -15.22 дБ      1:25 01-Intro / Maelo a Capella
DR9       -0.46 дБ   -11.90 дБ      7:08 02-Quítate de la Vía, Perico
DR9       -0.32 дБ   -12.02 дБ      7:41 03-Las Tumbas
DR9       -0.30 дБ   -10.83 дБ      8:17 04-El Negro Bembón
DR10      -0.47 дБ   -12.56 дБ      7:16 05-La Gata Montesa
DR9       -0.46 дБ   -10.89 дБ      5:13 06-Traigo Salsa
DR9       -0.45 дБ   -11.06 дБ      7:41 07-Las Caras Lindas
DR9       -0.47 дБ   -12.75 дБ      4:41 08-Hola
DR9       -0.39 дБ   -11.83 дБ      5:59 09-Colobó
DR10      -0.48 дБ   -14.47 дБ      6:40 10-Si Te Contara
DR9       -0.45 дБ   -11.15 дБ      8:03 11-El Nazareno
--------------------------------------------------------------------------------

Количество треков: 11
Реальные значения DR: DR9

Частота:   44100 Гц
Каналов:   2
Разрядность:   24
Битрейт:   1538 кбит/с
Кодек:   FLAC
================================================================================
Приватный:
Нет (DHT включён)
Размер:
747.29 Мб (783,586,249 байт) » файлов: 15
Участники:
0 раздают, 1 качают (1 участников всего)
Внешние участники:
2 раздают, 1 качают (3 участников всего) [ Обновить ]
Скорость:
737.92 Кб/c 0/c
No seeders - write personal message to M0p94ok. Нет сидеров - пишите в личку M0p94ok.
11:42
32
Нет комментариев. Ваш будет первым!