Вы используете незарегистрированную версию компонента "Вкладки"!

Поиск

2019 Xavier Casellas - In a Sentimental Move {Fresh Sound} [24-96]

2019 Xavier Casellas - In a Sentimental Move {Fresh Sound} [24-96]
Стили:
Дата записи диска:
19 июля и 20 июля 2018
Место записи:
Benny’s Wash N' Dry Studio, NYC, USA
Номер по каталогу:
FSRCD 5105
Носитель:
WEB
Формат:
PCM
Тип рипа:
tracks
Контейнер:
FLAC (*.flac)
Количество каналов:
2.0
Разрядность/ЧД:
24/96
Битрейт аудио:
lossless
Время звучания:
00:43:49
Наличие сканов:
только обложка
Страна-производитель диска (релиза):
USA
Релизёр (источник):
M0p94ok
Лог проверки качества
foobar2000 1.6.2 / Dynamic Range Meter 1.1.1
log date: 2021-05-16 11:54:09

--------------------------------------------------------------------------------
Analyzed: Xavier Casellas / In a Sentimental Move
--------------------------------------------------------------------------------

DR         Peak         RMS     Duration Track
--------------------------------------------------------------------------------
DR11      -0.60 dB   -14.93 dB      5:04 01-How Do You Keep the Music Playing
DR12      -0.60 dB   -14.98 dB      4:09 02-I'll Remember April
DR10      -0.60 dB   -13.07 dB      3:35 03-Valentine's Day
DR12      -0.60 dB   -15.02 dB      6:29 04-In a Sentimental Mood
DR12      -0.71 dB   -15.61 dB      3:47 05-Pannonica "Little Butterfly"
DR12      -0.60 dB   -14.96 dB      3:46 06-Lush Life
DR11      -0.60 dB   -14.89 dB      5:56 07-Summer
DR10      -0.60 dB   -14.12 dB      3:37 08-Lotus
DR12      -1.59 dB   -17.48 dB      3:43 09-Send in the Clowns
DR10      -0.60 dB   -12.54 dB      3:42 10-Still Crazy After All These Years
--------------------------------------------------------------------------------

Number of tracks:  10
Official DR value: DR11

Samplerate:        96000 Hz
Channels:          2
Bits per sample:   24
Bitrate:           2461 kbps
Codec:             FLAC
================================================================================
Any questions - support@pro-jazz.com. Есть вопросы - support@pro-jazz.com
12:01
99
Нет комментариев. Ваш будет первым!