Поиск

1961 Sarah Vaughan - After Hours (2019) {HDTT} [24-192]

1961 Sarah Vaughan - After Hours (2019) {HDTT} [24-192]
Стили:
Битрейт аудио:
lossless

Треклист:

01 - My Favorite Things 03:47
02 - Ev'ry Time We Say Goodbye 02:21
03 - Wonder Why 04:06
04 - Easy To Love 02:05
05 - Sophisticated Lady 03:47
06 - Great Day 02:00
07 - Ill Wind 03:13
08 - If Love Is Good To Me 02:11
09 - In A Sentimental Mood 04:00
10 - Vanity 04:15

Доп. инфо:

Формат записи/Источник записи: [TR24][OF]
Издание: Remastered
Год издания/переиздания диска: 1961/2019
Издатель (лейбл): HDTT
Продолжительность: 00:31:45
Наличие сканов в содержимом раздачи: Буклет PDF

Контейнер: FLAC (*.flac)
Тип рипа: tracks
Разрядность: 24/192
Количество каналов: 2.0

Источник (релизер): HDTT

Лог проверки качества
foobar2000 1.6.1 / Dynamic Range Meter 1.1.1
log date: 2020-10-03 15:23:54

--------------------------------------------------------------------------------
Analyzed: Sarah Vaughan / After Hours
--------------------------------------------------------------------------------

DR         Peak         RMS     Duration Track
--------------------------------------------------------------------------------
DR9       -2.32 dB   -15.44 dB      2:46 01-My Favorite Things
DR11      -1.36 dB   -14.91 dB      2:26 02-Ev'ry Time We Say Goodbye
DR9       -0.05 dB   -15.07 dB      4:20 03-Wonder Why
DR11      -0.51 dB   -14.98 dB      2:12 04-Easy To Love
DR9       -0.74 dB   -14.72 dB      3:52 05-Sophisticated Lady
DR12      -0.15 dB   -15.30 dB      2:18 06-Great Day
DR10      -1.44 dB   -16.53 dB      3:12 07-Ill Wind
DR10      -1.58 dB   -15.56 dB      2:12 08-If Love Is Good To Me
DR10      -0.99 dB   -15.81 dB      4:05 09-In A Sentimental Mood
DR10      -1.11 dB   -15.51 dB      4:19 10-Vanity
--------------------------------------------------------------------------------

Number of tracks:  10
Official DR value: DR10

Samplerate:        192000 Hz
Channels:          2
Bits per sample:   24
Bitrate:           5839 kbps
Codec:             FLAC
================================================================================
Приватный:
Нет (DHT включён)
Размер:
1.30 Гб (1,395,773,984 байт) » файлов: 16
Участники:
0 раздают, 0 качают (0 участников всего)
Внешние участники:
5 раздают, 2 качают (7 участников всего) [ Обновить ]
No seeders - write personal message to M0p94ok. Нет сидеров - пишите в личку M0p94ok.
21:12
26
Нет комментариев. Ваш будет первым!