Поиск

1996 Enrico Rava - Italian Ballads (2017) {Venus} [DSD64]

1996 Enrico Rava - Italian Ballads (2017) {Venus} [DSD64]
Дата записи диска:
2 марта - 4 марта 1996
Место записи:
Farm Studio, Cesalto Treviso, Venezia, Italy
Издатель (лейбл):
Номер по каталогу:
VHGD-226
Битрейт аудио:
lossless

Треклист:

01. The Song of Gelsomina  01:54
02. Giulietta Degli Spiriti  05:07
03. Un Bel Di, Vedremo  05:23
04. Il Cielo in Una Stanza  08:30
05. Margherita  04:20
06. Bella  04:40
07. Un Canto  03:22
08. Diva  07:28
09. Torna a Surriento  05:51
10. Senza Fine  06:07
11. E Se Domani  02:58
12. Due Note  04:52
13. Stringimi Forte I Polsi  03:26
14. More  06:01
15. O Mio Babbino Caro  02:09

Доп. инфо:

Формат записи/Источник записи: [SACD-R][OF]
Наличие водяных знаков: Нет
Год издания/переиздания диска: 1996/2017
Продолжительность: 01:11:52
Наличие сканов в содержимом раздачи: Только обложка альбома

Контейнер: ISO (*.iso)
Тип рипа: image
Разрядность: 64(2,8 MHz/1 Bit)
Формат: DSD
Количество каналов: 2.0

Доп. информация: venusrecords
Источник (релизер): jazzy pic

Лог проверки качества
foobar2000 1.6.3 / Замер динамического диапазона (DR) 1.1.1
Дата отчёта:  2021-01-28 09:55:13

--------------------------------------------------------------------------------
Анализ:   ENRICO RAVA / Italian Ballads
--------------------------------------------------------------------------------

DR         Пики         RMS           Продолжительность трека
--------------------------------------------------------------------------------
DR8       -5.15 дБ   -16.67 дБ      1:53 01-The Song Of Gelsomina
DR12      -4.16 дБ   -19.18 дБ      5:06 02-Giulietta Degli Spiriti
DR11      -4.45 дБ   -19.95 дБ      5:22 03-Un Bel Di, Vedremo
DR10      -3.85 дБ   -17.08 дБ      8:28 04-Il Cielo In Una Stanza
DR9       -4.36 дБ   -17.41 дБ      4:19 05-Margherita
DR10      -4.01 дБ   -18.05 дБ      4:39 06-Bella
DR8       -5.33 дБ   -19.29 дБ      3:21 07-Un Canto
DR10      -4.26 дБ   -17.09 дБ      7:27 08-Diva
DR16      -5.27 дБ   -25.09 дБ      5:50 09-Torna A Surriento
DR11      -5.48 дБ   -20.29 дБ      6:05 10-Senza Fine
DR11      -5.01 дБ   -20.31 дБ      2:56 11-E Se Domani
DR12      -4.80 дБ   -21.08 дБ      4:51 12-Due Note
DR10      -4.46 дБ   -17.18 дБ      3:25 13-Stringimi Forte I Polsi
DR13      -3.80 дБ   -20.68 дБ      6:00 14-More
DR10      -4.88 дБ   -18.09 дБ      2:09 15-O Mio Babbino Caro
--------------------------------------------------------------------------------

Количество треков: 15
Реальные значения DR: DR11

Частота:  2822400 Гц / Частота PCM: 352800 Гц
Каналов:  2
Разрядность:   1
Битрейт:  5645 кбит/с
Кодек:   DSD64
================================================================================
Приватный:
Нет (DHT включён)
Размер:
2.91 Гб (3,123,433,905 байт) » файлов: 5
Участники:
0 раздают, 0 качают (0 участников всего)
Внешние участники:
8 раздают, 2 качают (10 участников всего) [ Обновить ]
No seeders - write personal message to M0p94ok. Any questions - support@pro-jazz.com.
Нет сидеров - пишите в личку M0p94ok. Есть вопросы - support@pro-jazz.com
12:39
113
Нет комментариев. Ваш будет первым!