Поиск

2017 AKKU Quintet - Aeon {Morpheus} [24-44.1]

2017 AKKU Quintet - Aeon {Morpheus} [24-44.1]
Дата записи диска:
10 декабря - 11 декабря 2016
Место записи:
Hardstudios, Switzerland
Дата издания диска:
24 марта 2017
Носитель:
WEB
Формат:
PCM
Тип рипа:
tracks
Контейнер:
FLAC (*.flac)
Количество каналов:
2.0
Разрядность/ЧД:
24/44,1
Битрейт аудио:
lossless
Время звучания:
01:07:57
Наличие сканов:
только обложка
Страна-производитель диска (релиза):
Switzerland
Релизёр (источник):
M0p94ok
Лог проверки качества
foobar2000 1.6.2 / Dynamic Range Meter 1.1.1
log date: 2021-04-03 19:41:21

--------------------------------------------------------------------------------
Analyzed: AKKU quintet / Aeon
--------------------------------------------------------------------------------

DR         Peak         RMS     Duration Track
--------------------------------------------------------------------------------
DR11      -0.30 dB   -13.56 dB     14:58 01-Aeon, Pt. I-III
DR10      -0.30 dB   -13.49 dB     10:08 02-Polar
DR11      -0.30 dB   -12.14 dB      9:41 03-Flying Low
DR9       -0.30 dB   -12.51 dB     12:11 04-Satellite
DR10      -0.30 dB   -12.23 dB     21:02 05-Waves
--------------------------------------------------------------------------------

Number of tracks:  5
Official DR value: DR10

Samplerate:        44100 Hz
Channels:          2
Bits per sample:   24
Bitrate:           1321 kbps
Codec:             FLAC
================================================================================
No seeders - write personal message to M0p94ok. Any questions - support@pro-jazz.com.
Нет сидеров - пишите в личку M0p94ok. Есть вопросы - support@pro-jazz.com
19:59
127
Нет комментариев. Ваш будет первым!