Вы используете незарегистрированную версию компонента "Вкладки"!

Поиск

1951-1953 Billie Holiday - Billie Holiday At Storyville (2020) {RevOla} [24-44.1]

1951-1953 Billie Holiday - Billie Holiday At Storyville (2020) {RevOla} [24-44.1]
Стили:
Издатель (лейбл):
Битрейт аудио:
lossless
Доп. инфо:

Формат записи/Источник записи: [TR24][OF]
Издание: Remastered
Год издания/переиздания диска: 1951-1953/2020
Продолжительность: 00:36:30
Наличие сканов в содержимом раздачи: Нет

Контейнер: FLAC (*.flac)
Тип рипа: tracks
Разрядность: 24/44,1
Количество каналов: 2.0

Источник (релизер): Qobuz

Лог проверки качества
foobar2000 1.4.6 / Dynamic Range Meter 1.1.1
log date: 2021-01-24 05:42:52

--------------------------------------------------------------------------------
Analyzed: Billie Holiday / Billie Holiday At Storyville
--------------------------------------------------------------------------------

DR         Peak         RMS     Duration Track
--------------------------------------------------------------------------------
DR12      -1.41 dB   -15.79 dB      1:13 01-Intro (Remastered)
DR12      -1.07 dB   -17.29 dB      3:25 02-I Cover The Waterfront (Remastered)
DR13      -1.56 dB   -16.55 dB      2:14 03-Too Marvelous For Words (Remastered)
DR12      -1.30 dB   -19.57 dB      3:10 04-I Loves You, Porgy (Remastered)
DR13      -1.79 dB   -16.73 dB      1:45 05-Them There Eyes (Remastered)
DR13      -0.06 dB   -19.22 dB      3:55 06-Willow, Weep For Me (Remastered)
DR11      -1.59 dB   -17.05 dB      0:35 07-Intro 2 (Remastered)
DR12      -2.27 dB   -18.63 dB      1:45 08-I Only Have Eyes For You (Remastered)
DR14      -2.01 dB   -19.73 dB      3:56 09-You Go To My Head (Remastered)
DR10      -4.54 dB   -17.42 dB      3:08 10-He's Funny That Way (Remastered)
DR11      -4.04 dB   -18.73 dB      3:30 11-Billie's Blues (Remastered)
DR10      -4.38 dB   -16.28 dB      2:01 12-Miss Brown, To You (Remastered)
DR11      -4.42 dB   -18.06 dB      2:22 13-Lover, Come Back To Me (Remastered)
DR10      -4.60 dB   -17.02 dB      2:24 14-Ain't Nobody's Business If I Do (Remastered)
DR10      -4.08 dB   -15.76 dB      1:13 15-You're Driving Me Crazy (Remastered)
--------------------------------------------------------------------------------

Number of tracks:  15
Official DR value: DR12

Samplerate:        44100 Hz
Channels:          2
Bits per sample:   24
Bitrate:           1195 kbps
Codec:             FLAC
================================================================================
Any questions - support@pro-jazz.com. Есть вопросы - support@pro-jazz.com
12:33
158
Нет комментариев. Ваш будет первым!