Поиск

2015 VA - Venus The Amazing Super Audio CD Sampler Vol.7 {Venus} [DSD64]

2015 VA - Venus The Amazing Super Audio CD Sampler Vol.7 {Venus} [DSD64]
Издатель (лейбл):
Номер по каталогу:
VHGD-97
Битрейт аудио:
lossless
Треклист:

01. I Concentrate On You - Eddie Higgins Trio《 C. Porter 》
02. Stolen Moments - Super Trio《 O. Nelson 》
03. Summertime - Nicolas Montier And Saxomania《 G. Gershwin 》
04. Watch What Happens - Alexis Cole & Bucky Pizzarelli《 N. Gimbel, J. Doumi - M. Legrand 》
05. Felicidade - George Garzone & Trio Da Paz《 A. C. Jobim 》
06. Danceland - David Hazeltine Trio《 B. Powell 》
07. It's Magic - Eddie Higgins Solo Piano《 J. Styne 》
08. Brand New Day - Tessa Souter《 T. Souter - G. Faure 》
09. You'd Be So Nice To Come Home To - Ted Rosenthal Trio《 C. Porter 》
10. As Time Goes By - Eric Alexander Quartet《 H. Hupfield 》
11. Autumn In Rome - Nicki Parrott《 A. Cicognini, P. Weston - S. Cahn 》
12. Gentle Rain - Eddie Higgins Trio《 L. Bonfa 》
13. Besame Mucho - Sharel Cassity Quartet《 C. Velazquez 》
14. Autamun Leaves - Massimo Farao' Trio《 J. Kosma 》
15. In A Sentimental Mood - Pharoah Sanders Quartet《 D. Ellington 》

Доп. инфо:

Формат записи/Источник записи: [SACD-R][OF]
Наличие водяных знаков: Нет
Издание: Sampler
Год издания диска: 2015
Продолжительность: 01:25:45
Наличие сканов в содержимом раздачи: Только обложка альбома

Контейнер: ISO (*.iso)
Тип рипа: image
Разрядность: 64(2,8 MHz/1 Bit)
Формат: DSD
Количество каналов: 2.0

Источник (релизер): venusrecords

Лог проверки качества
foobar2000 1.6.3 / Замер динамического диапазона (DR) 1.1.1
Дата отчёта:  2021-01-27 19:51:34

--------------------------------------------------------------------------------
Анализ:   Various Artists / THE VENUS AMAZING SUPER AUDIO CD SAMPLER VOL.7
--------------------------------------------------------------------------------

DR         Пики         RMS           Продолжительность трека
--------------------------------------------------------------------------------
DR8       -4.48 дБ   -15.38 дБ      4:55 01-I Concentrate On You
DR8       -4.18 дБ   -14.09 дБ      5:48 02-Stolen Moments
DR10      -4.21 дБ   -16.73 дБ      3:42 03-Summertime
DR9       -3.96 дБ   -14.36 дБ      4:09 04-Watch What Happens
DR9       -3.90 дБ   -14.28 дБ      7:27 05-Felicidade
DR8       -4.65 дБ   -15.82 дБ      6:26 06-Danceland
DR10      -5.88 дБ   -18.82 дБ      4:54 07-It's Magic
DR8       -5.01 дБ   -14.26 дБ      5:28 08-Brand New Day
DR9       -4.23 дБ   -15.20 дБ      6:44 09-You'd Be So Nice To Come Home To
DR8       -5.13 дБ   -15.44 дБ      6:55 10-As Time Goes By
DR8       -4.75 дБ   -13.61 дБ      4:15 11-Autumn In Rome
DR8       -4.53 дБ   -14.22 дБ      4:42 12-Gentle Rain
DR9       -4.11 дБ   -14.75 дБ      6:12 13-Besame Mucho
DR9       -4.71 дБ   -16.25 дБ      7:32 14-Autamun Leaves
DR9       -4.99 дБ   -17.34 дБ      6:37 15-In A Sentimental Mood
--------------------------------------------------------------------------------

Количество треков: 15
Реальные значения DR: DR9

Частота:  2822400 Гц / Частота PCM: 352800 Гц
Каналов:  2
Разрядность:   1
Битрейт:  5645 кбит/с
Кодек:   DSD64
================================================================================
Приватный:
Нет (DHT включён)
Размер:
3.44 Гб (3,689,514,113 байт) » файлов: 3
Участники:
0 раздают, 0 качают (0 участников всего)
Внешние участники:
12 раздают, 4 качают (16 участников всего) [ Обновить ]
No seeders - write personal message to M0p94ok. Any questions - support@pro-jazz.com.
Нет сидеров - пишите в личку M0p94ok. Есть вопросы - support@pro-jazz.com
19:36
108
Нет комментариев. Ваш будет первым!