Поиск

2021 Clare Teal - They Say It's Swing {MUD} [24-44.1]

2021 Clare Teal - They Say It's Swing {MUD} [24-44.1]
Стили:
Дата записи диска:
1 января - 31 января 2020
Дата издания диска:
15 декабря 2020
Битрейт аудио:
lossless
Доп. инфо:

Формат записи/Источник записи: [TR24][OF]
Наличие водяных знаков: Нет
Год издания: 2021
Продолжительность: 00:52:11
Наличие сканов в содержимом раздачи: Только обложка альбома
Контейнер: FLAC (*.flac)
Тип рипа: tracks
Разрядность: 24/44.1
Формат: PCM
Количество каналов: 2.0
Источник (релизер): qobuz.com

Лог проверки качества
foobar2000 1.4.8 / Dynamic Range Meter 1.1.1
log date: 2021-01-27 19:04:06

--------------------------------------------------------------------------------
Analyzed: Clare Teal / They Say It's Swing
--------------------------------------------------------------------------------

DR         Peak         RMS     Duration Track
--------------------------------------------------------------------------------
DR8       -0.06 dB   -10.28 dB      5:11 01-Cry Me a River
DR8        0.00 dB   -10.70 dB      4:21 02-The Song is You
DR9        0.00 dB    -9.75 dB      3:36 03-Perfidia
DR11       0.00 dB   -14.75 dB      5:39 04-My Funny Valentine
DR10       0.00 dB   -11.34 dB      3:45 05-If I Had a Ribbon Bow
DR7       -0.06 dB    -8.63 dB      2:41 06-Tea for Two
DR7        0.00 dB    -9.25 dB      3:52 07-It's Raining
DR10      -0.09 dB   -11.17 dB      2:53 08-It's a Good Day
DR12      -1.16 dB   -17.07 dB      4:12 09-I Walk a Little Faster
DR11      -0.04 dB   -12.13 dB      4:10 10-They Say It's Spring
DR11      -0.09 dB   -14.62 dB      3:59 11-I Can Dream Can't I
DR9        0.00 dB   -11.19 dB      3:58 12-Something Happens to Me
DR7        0.00 dB    -9.12 dB      4:01 13-It Don't Mean a Thing (If It Ain't Got That Swing)
--------------------------------------------------------------------------------

Number of tracks:  13
Official DR value: DR9
Samplerate:        44100 Hz
Channels:          2
Bits per sample:   24
Bitrate:           1627 kbps
Codec:             FLAC
================================================================================
No seeders - write personal message to M0p94ok. Any questions - support@pro-jazz.com.
Нет сидеров - пишите в личку M0p94ok. Есть вопросы - support@pro-jazz.com
13:50
126
Нет комментариев. Ваш будет первым!