Поиск

2018 VA - Venus The Amazing Super Audio CD Sampler Vol.23 {Venus} [DSD64]

2018 VA - Venus The Amazing Super Audio CD Sampler Vol.23 {Venus} [DSD64]
Издатель (лейбл):
Номер по каталогу:
VHGD-293
Битрейт аудио:
lossless
Треклист:

01. Charade - Massimo Farao' Trio《 H. Mancini 》
02. Memories Of You - Massimo Farao' Trio《 E. Blake 》
03. Souvenir - Phil Woods Quintet《 B. Carter 》
04. Besame Mucho - Rob Agerbeek Trio《 Velazquez 》
05. East Of The Sun - Steve Nelson Jazz Quartet《 B. Bowman 》
06. Just In Time - Jay Leonhart Trio《 I. Berlin 》
07. Gentle Art Of Love - Davide Palladin Trio《 O. Pettiford 》
08. Skylark - Denise King《 H. Carmichael 》
09. Moment To Moment - Hideaki Yoshioka Trio《 H. Mancini 》
10. The Forlorn Peach Tree - Emil Viklicky Trio《 L. Janacek 》
11. No Problem - John Hicks Trio《 D. Jordan 》
12. Keiko's Samba - Walter Bishop Jr. Trio 《 W. Bishop Jr. 》
13. Ole Texas - Stanley Cowell Trio《 American Folk Song / Trad 》
14. Donna - Renato Sellani Trio《 G. Kramer 》
15. Blue For You Instrumentally known as “ Blue Bossa ” - Adela Dalto《 K. Dorham / A. Dalto 》

Доп. инфо:

Формат записи/Источник записи: [SACD-R][OF]
Наличие водяных знаков: Нет
Издание: Sampler
Год издания диска: 2018
Продолжительность: 01:25:35
Наличие сканов в содержимом раздачи: Только обложка альбома

Контейнер: ISO (*.iso)
Тип рипа: image
Разрядность: 64(2,8 MHz/1 Bit)
Формат: DSD
Количество каналов: 2.0

Источник (релизер): venusrecords

Лог проверки качества
foobar2000 1.5.1 / Замер динамического диапазона (DR) 1.1.1
Дата отчёта:  2020-02-09 12:21:05

--------------------------------------------------------------------------------
Анализ:   Various Artists / THE VENUS AMAZING SUPER AUDIO CD SAMPLER VOL.23
--------------------------------------------------------------------------------

DR         Пики         RMS           Продолжительность трека
--------------------------------------------------------------------------------
DR10      -5.25 дБ   -16.96 дБ      6:02 01-Charade
DR11      -5.07 дБ   -18.28 дБ      6:45 02-Memories Of You
DR10      -5.30 дБ   -17.09 дБ      6:50 03-Souvenirs
DR7       -4.71 дБ   -12.90 дБ      4:34 04-Besame Mucho
DR6       -5.21 дБ   -12.92 дБ      3:57 05-East Of The Sun
DR6       -4.97 дБ   -13.30 дБ      4:59 06-Just In Time
DR6       -5.17 дБ   -13.55 дБ      4:20 07-Gentle Art Of Love
DR9       -5.02 дБ   -17.29 дБ      6:24 08-Skylark
DR11      -5.29 дБ   -19.28 дБ      7:08 09-Moment To Moment
DR8       -4.64 дБ   -13.91 дБ      7:13 10-The Forlorn Peach Tree
DR8       -4.81 дБ   -15.28 дБ      7:25 11-No Ploblem
DR7       -4.80 дБ   -14.04 дБ      5:48 12-Keiko's Samba
DR7       -4.86 дБ   -14.40 дБ      5:24 13-Ole Texas
DR8       -4.98 дБ   -15.63 дБ      3:55 14-Donna
DR6       -4.72 дБ   -13.06 дБ      4:52 15-Blue For You
--------------------------------------------------------------------------------

Количество треков: 15
Реальные значения DR: DR8

Частота:  2822400 Гц / Частота PCM: 88200 Гц
Каналов:  2
Разрядность:   1
Битрейт:  5645 кбит/с
Кодек:   DSD64
================================================================================
Приватный:
Нет (DHT включён)
Размер:
3.44 Гб (3,698,805,348 байт) » файлов: 5
Участники:
0 раздают, 0 качают (0 участников всего)
Внешние участники:
11 раздают, 4 качают (15 участников всего) [ Обновить ]
No seeders - write personal message to M0p94ok. Any questions - support@pro-jazz.com.
Нет сидеров - пишите в личку M0p94ok. Есть вопросы - support@pro-jazz.com
12:18
99
Нет комментариев. Ваш будет первым!