Поиск

2015 The Sax Pack - Power Of 3 {Shanachie} [24-44.1]

2015 The Sax Pack - Power Of 3 {Shanachie} [24-44.1]
Место записи:
Hinge Studios, Chicago, IL Workhouse Studios, Minneapolis, MN
Номер по каталогу:
SHA-5429
Носитель:
WEB
Формат:
PCM
Тип рипа:
tracks
Контейнер:
FLAC (*.flac)
Количество каналов:
2.0
Разрядность/ЧД:
24/44,1
Битрейт аудио:
lossless
Время звучания:
00:41:53
Наличие сканов:
буклет pdf
Страна-производитель диска (релиза):
USA
Релизёр (источник):
M0p94ok
Лог проверки качества
foobar2000 1.3.16 / Dynamic Range Meter 1.1.1
log date: 2019-05-15 18:56:06

--------------------------------------------------------------------------------
Analyzed: The Sax Pack / Power Of 3
--------------------------------------------------------------------------------

DR         Peak         RMS     Duration Track
--------------------------------------------------------------------------------
DR9       -0.51 dB   -10.99 dB      3:48 01-Sooner Or Later
DR9       -0.51 dB   -11.40 dB      4:06 02-Back In Style
DR8       -0.51 dB   -10.57 dB      4:03 03-Disco Here
DR9       -0.51 dB   -11.50 dB      4:19 04-Shine On
DR8       -0.51 dB   -10.16 dB      4:35 05-Like Old Times
DR7       -0.57 dB   -10.44 dB      3:46 06-Into You
DR9       -0.51 dB   -11.32 dB      4:35 07-Power Of 3
DR10      -0.51 dB   -12.84 dB      4:20 08-When Morning Comes
DR9       -0.51 dB   -11.44 dB      4:11 09-What's The Time?
DR9       -0.51 dB   -10.75 dB      4:10 10-Never Gonna Give You Up
--------------------------------------------------------------------------------

Number of tracks:  10
Official DR value: DR9

Samplerate:        44100 Hz
Channels:          2
Bits per sample:   24
Bitrate:           1696 kbps
Codec:             FLAC
================================================================================
No seeders - write personal message to M0p94ok. Any questions - support@pro-jazz.com.
Нет сидеров - пишите в личку M0p94ok. Есть вопросы - support@pro-jazz.com
18:23
129
Нет комментариев. Ваш будет первым!