Поиск

2017 VA - Venus The Amazing Super Audio CD Sampler Vol.21 {Venus} [DSD64]

2017 VA - Venus The Amazing Super Audio CD Sampler Vol.21 {Venus} [DSD64]
Издатель (лейбл):
Номер по каталогу:
VHGD-261
Битрейт аудио:
lossless
Треклист:

01. This Is New - Steve Kuhn Trio《 K. Weill 》
02. So In Love - Richard Wyands Trio《 C. Porter 》
03. Walk On By - Nicki Parrott《 B. Bacharach, H. David 》
04. You'd Be So Nice To Come Home To - Konrad Paszkudzki Trio《 C. Porter 》
05. Bohemia After Dark - Massimo Farao'& Aldo Zunino《 O. Pettiford 》
06. Strangers In The Night - Joe Beck Trio《 B. Keampfert 》
07. Maria Cervantes - John Di Martino's Romantic Jazz Trio《 N. Morales 》
08. Tonight - Richie Cole《 L. Bernstein 》
09. Do It Again - Konrad Paszkudzki Trio《 G. Gershwin 》
10. Foxy Lady - Lonnie Smith Trio《 J. Hendrix 》
11. For No One - John Di Martino's Romantic Jazz Trio《 Lennon - Mc Cartney 》
12. Satin Doll - Dewey Redman《 D. Ellington, B. Strayhorn 》
13. All Of You - Roma Trio《 C. Porter 》
14. To Love Again - Derek Smith《 Chopin 》
15. Night Flower~Nocturne No. 15 in F minor, Op. 55/1 - John Di Martino's Romantic Jazz Trio

Доп. инфо:

Формат записи/Источник записи: [SACD-R][OF]
Наличие водяных знаков: Нет
Издание: Sampler
Год издания диска: 2017
Продолжительность: 01:19:48
Наличие сканов в содержимом раздачи: Да (сканы)

Контейнер: ISO (*.iso)
Тип рипа: image
Разрядность: 64(2,8 MHz/1 Bit)
Формат: DSD
Количество каналов: 2.0

Источник (релизер): venusrecords

Лог проверки качества
foobar2000 1.6.3 / Замер динамического диапазона (DR) 1.1.1
Дата отчёта:  2021-01-26 21:20:58

--------------------------------------------------------------------------------
Анализ:   Various Artists / THE VENUS AMAZING SUPER AUDIO CD SAMPLER VOL.21
--------------------------------------------------------------------------------

DR         Пики         RMS           Продолжительность трека
--------------------------------------------------------------------------------
DR11      -4.48 дБ   -17.86 дБ      7:31 01-This Is New
DR11      -4.82 дБ   -17.71 дБ      4:45 02-So In Love
DR9       -5.32 дБ   -16.21 дБ      3:10 03-Walk On By
DR6       -5.25 дБ   -12.55 дБ      4:56 04-You'd Be So Nice To Come Home To
DR6       -4.97 дБ   -12.32 дБ      4:25 05-Bohemia After Dark
DR7       -4.79 дБ   -13.85 дБ      4:58 06-Strangers In The Night
DR9       -4.70 дБ   -15.05 дБ      4:40 07-Maria Cervantes
DR10      -4.76 дБ   -17.31 дБ      5:47 08-Tonight
DR9       -5.47 дБ   -16.15 дБ      4:10 09-Do It Again
DR4       -5.79 дБ   -10.40 дБ      9:56 10-Foxy Lady
DR6       -5.28 дБ   -13.55 дБ      4:28 11-For No One
DR7       -5.13 дБ   -14.05 дБ      8:21 12-Satin Doll
DR7       -5.22 дБ   -14.80 дБ      4:57 13-All Of You
DR10      -4.93 дБ   -16.55 дБ      2:43 14-To Love Again
DR8       -4.22 дБ   -13.48 дБ      5:00 15-Night Flower
--------------------------------------------------------------------------------

Количество треков: 15
Реальные значения DR: DR8

Частота:  2822400 Гц / Частота PCM: 352800 Гц
Каналов:  2
Разрядность:   1
Битрейт:  5645 кбит/с
Кодек:   DSD64
================================================================================
Приватный:
Нет (DHT включён)
Размер:
3.25 Гб (3,486,337,503 байт) » файлов: 6
Участники:
0 раздают, 0 качают (0 участников всего)
Внешние участники:
21 раздают, 7 качают (28 участников всего) [ Обновить ]
No seeders - write personal message to M0p94ok. Нет сидеров - пишите в личку M0p94ok.
16:22
110
Нет комментариев. Ваш будет первым!