Вы используете незарегистрированную версию компонента "Вкладки"!

Поиск

1986 The Square - Sports (2015) {Sony} [DSD64]

1986 The Square - Sports (2015) {Sony} [DSD64]
Стили:
Дата записи диска:
1 октября - 31 декабря 1985
Место записи:
CBS/Sony Shinanomachi Studio, Tokyo, Japan
Дата издания диска:
5 марта 1986
Издатель (лейбл):
Битрейт аудио:
lossless
Доп. инфо:

Формат записи/Источник записи: [DSD][OF]
Наличие водяных знаков: Нет
Год издания/переиздания диска: 1986/2015
Продолжительность: 00:43:36
Наличие сканов в содержимом раздачи: Только обложка альбома

Контейнер: DFF (*.dff)
Тип рипа: tracks
Разрядность: 64 (2,8 MHz/1 Bit)
Формат: DSD
Количество каналов: 2.0

Источник (релизер): mora.jp

Лог проверки качества
foobar2000 1.6.3 / Замер динамического диапазона (DR) 1.1.1
Дата отчёта:  2021-01-26 15:47:20

--------------------------------------------------------------------------------
Анализ:   The Square / S・P・O・R・T・S
--------------------------------------------------------------------------------

DR         Пики         RMS           Продолжительность трека
--------------------------------------------------------------------------------
DR9       -5.77 дБ   -16.27 дБ      4:12 01-Love Is In My Sight
DR9       -5.66 дБ   -17.36 дБ      4:26 02-Love All
DR8       -5.74 дБ   -15.70 дБ      4:00 03-Hit And Run
DR10      -5.13 дБ   -17.14 дБ      4:58 04-Leave Me Alone
DR8       -5.54 дБ   -14.93 дБ      4:09 05-Overhead Kick
DR8       -6.40 дБ   -16.74 дБ      5:21 06-Drop Goal
DR9       -5.78 дБ   -16.34 дБ      5:03 07-宝島 (Takarajima)
DR8       -6.07 дБ   -15.27 дБ      4:53 08-CAMEL LAND
DR10      -5.27 дБ   -17.39 дБ      6:34 09-雲路 (Passage Of Clouds)
--------------------------------------------------------------------------------

Количество треков: 9
Реальные значения DR: DR9

Частота:  2822400 Гц / Частота PCM: 352800 Гц
Каналов:  2
Разрядность:   1
Битрейт:  5645 кбит/с
Кодек:   DSD64
================================================================================
Any questions - support@pro-jazz.com. Есть вопросы - support@pro-jazz.com
01:00
161
Нет комментариев. Ваш будет первым!