Поиск

2017 Sabogal Uriburu Dolberg - Gato Negro {Club del Disco} [24-48]

2017 Sabogal Uriburu Dolberg - Gato Negro {Club del Disco} [24-48]
Дата издания диска:
9 октября 2017
Носитель:
WEB
Формат:
PCM
Тип рипа:
tracks
Контейнер:
FLAC (*.flac)
Количество каналов:
2.0
Разрядность/ЧД:
24/48
Битрейт аудио:
lossless
Время звучания:
00:55:20
Наличие сканов:
только обложка
Страна-производитель диска (релиза):
Argentina
Релизёр (источник):
M0p94ok
Лог проверки качества
foobar2000 1.6.2 / Dynamic Range Meter 1.1.1
log date: 2021-03-31 23:01:34

--------------------------------------------------------------------------------
Analyzed: Sabogal Uriburu Dolberg / Gato Negro
--------------------------------------------------------------------------------

DR         Peak         RMS     Duration Track
--------------------------------------------------------------------------------
DR11       0.00 dB   -13.58 dB      3:45 01-Nola Blues
DR13       0.00 dB   -15.46 dB      3:13 02-La Solución
DR11       0.00 dB   -13.15 dB      5:34 03-Gato Negro
DR10       0.00 dB   -13.05 dB      7:01 04-Esbossando
DR10       0.00 dB   -12.78 dB      3:59 05-El Primo
DR12      -0.97 dB   -16.65 dB      4:50 06-El Último Perro
DR11       0.00 dB   -13.16 dB      4:22 07-Blues N° 1
DR10       0.00 dB   -13.29 dB      8:52 08-Por Momentos
DR11       0.00 dB   -13.53 dB      4:49 09-Pal Contra
DR12       0.00 dB   -16.23 dB      5:25 10-Alicia
DR11       0.00 dB   -14.81 dB      3:34 11-Nadie Sabe los Problemas Que Vi
--------------------------------------------------------------------------------

Number of tracks:  11
Official DR value: DR11

Samplerate:        48000 Hz
Channels:          2
Bits per sample:   24
Bitrate:           1302 kbps
Codec:             FLAC
================================================================================
No seeders - write personal message to M0p94ok. Any questions - support@pro-jazz.com.
Нет сидеров - пишите в личку M0p94ok. Есть вопросы - support@pro-jazz.com
23:30
114
Нет комментариев. Ваш будет первым!