Поиск

2018 VA - Must Have Jazz Recordings {Fonè} [DST64]

2018 VA - Must Have Jazz Recordings {Fonè} [DST64]
Стили:
Номер по каталогу:
185 SACD
Битрейт аудио:
lossless
Доп. инфо:

Формат записи/Источник записи: [SACD-R][OF]
Наличие водяных знаков: Нет
Издание: Sampler
Год издания диска: 2018
Издатель (лейбл): Fonè - 185 SACD
Продолжительность: 00:57:07
Наличие сканов в содержимом раздачи: Буклет PDF

Контейнер: ISO (*.iso)
Тип рипа: image
Разрядность: 64(2,8 MHz/1 Bit)
Формат: DST64
Количество каналов: 2.0

Источник (релизер): hraudio.net

Лог проверки качества
foobar2000 1.6.3 / Замер динамического диапазона (DR) 1.1.1
Дата отчёта:  2021-01-26 11:02:09

--------------------------------------------------------------------------------
Анализ:   VARIOUS ARTISTS / MUST JAZZ
--------------------------------------------------------------------------------

DR         Пики         RMS           Продолжительность трека
--------------------------------------------------------------------------------
DR13      -9.08 дБ   -25.00 дБ      6:39 01-MEMORIES OF RIO
DR17      -7.38 дБ   -29.35 дБ      3:31 02-EASY TO LOVE
DR16      -9.10 дБ   -30.03 дБ      4:47 03-NAIMA
DR13      -8.57 дБ   -26.41 дБ      3:35 04-ESPRESSO
DR16      -7.25 дБ   -27.94 дБ      4:00 05-GONE GONE GONE
DR14      -7.06 дБ   -26.10 дБ      2:54 06-BIG-HEARTED WOMAN
DR14      -7.89 дБ   -25.39 дБ      3:24 07-PRODIGAL SON
DR13      -7.05 дБ   -24.09 дБ      4:59 08-BOPLICITY
DR15      -6.64 дБ   -25.83 дБ      9:31 09-SPIRAL
DR14      -9.77 дБ   -28.64 дБ      4:46 10-CHELSEA BRIDGE
DR14      -9.42 дБ   -27.45 дБ      3:34 11-KEY TO THE HIGHWAY
DR13      -6.89 дБ   -25.30 дБ      5:26 12-COLUMBIANA
--------------------------------------------------------------------------------

Количество треков: 12
Реальные значения DR: DR15

Частота:  2822400 Гц / Частота PCM: 352800 Гц
Каналов:  2
Разрядность:   1
Битрейт:  5645 кбит/с
Кодек:   DST64
================================================================================
No seeders - write personal message to M0p94ok. Any questions - support@pro-jazz.com.
Нет сидеров - пишите в личку M0p94ok. Есть вопросы - support@pro-jazz.com
16:23
168
Нет комментариев. Ваш будет первым!