Поиск

2008 Dino Rubino - Mi Sono Innamorato Di Te (2017) {Venus} [DSD64]

2008 Dino Rubino - Mi Sono Innamorato Di Te (2017) {Venus} [DSD64]
Дата записи диска:
21 мая - 22 мая 2008
Место записи:
Fonoprint Studio, Bologna, Italy
Издатель (лейбл):
Номер по каталогу:
VHGD-202
Битрейт аудио:
lossless
Доп. инфо:

Формат записи/Источник записи: [SACD-R][OF]
Наличие водяных знаков: Нет
Год издания/переиздания диска: 2008/2017
Продолжительность: 00:46:25
Наличие сканов в содержимом раздачи: Только обложка альбома

Контейнер: ISO (*.iso)
Тип рипа: image
Разрядность: 64(2,8 MHz/1 Bit)
Формат: DSD
Количество каналов: 2.0

Доп. информация: venusrecords
Источник (релизер): jazzy pic

Лог проверки качества
foobar2000 1.6.3 / Замер динамического диапазона (DR) 1.1.1
Дата отчёта:  2021-01-25 22:44:08

--------------------------------------------------------------------------------
Анализ:   DINO RUBINO / Mi Sono Innamorato Di Te
--------------------------------------------------------------------------------

DR         Пики         RMS           Продолжительность трека
--------------------------------------------------------------------------------
DR8       -4.47 дБ   -15.03 дБ      6:26 01-Mi Sono Innamorato Di Te
DR8       -4.69 дБ   -16.18 дБ      4:39 02-Lotus Blossom
DR7       -4.12 дБ   -12.40 дБ      5:53 03-You And The Night And Music
DR8       -4.63 дБ   -13.74 дБ      7:19 04-If I Should Lose You
DR8       -4.44 дБ   -14.37 дБ      4:51 05-Eternal Triangle
DR8       -4.44 дБ   -15.44 дБ      5:49 06-Here's That Rainy Day
DR8       -4.18 дБ   -13.58 дБ      6:27 07-The Old Country
DR7       -4.02 дБ   -12.16 дБ      5:02 08-Il Matrimonio
--------------------------------------------------------------------------------

Количество треков: 8
Реальные значения DR: DR8

Частота:  2822400 Гц / Частота PCM: 352800 Гц
Каналов:  2
Разрядность:   1
Битрейт:  5645 кбит/с
Кодек:   DSD64
================================================================================
No seeders - write personal message to M0p94ok. Any questions - support@pro-jazz.com.
Нет сидеров - пишите в личку M0p94ok. Есть вопросы - support@pro-jazz.com
14:01
138
Нет комментариев. Ваш будет первым!