Поиск

2017 Rick Braun - Around The Horn {Shanachie} [24-44.1]

2017 Rick Braun - Around The Horn {Shanachie} [24-44.1]
Место записи:
Brantosoarus Studios, Woodland Hills, CA, USA
Дата издания диска:
24 февраля 2017
Издатель (лейбл):
Номер по каталогу:
SH5448
Носитель:
WEB
Формат:
PCM
Тип рипа:
tracks
Контейнер:
FLAC (*.flac)
Количество каналов:
2.0
Битрейт аудио:
lossless
Время звучания:
00:52:13
Наличие сканов:
буклет pdf
Страна-производитель диска (релиза):
USA
Релизёр (источник):
M0p94ok
Лог проверки качества
foobar2000 1.3.16 / Dynamic Range Meter 1.1.1
log date: 2019-05-14 23:26:27

--------------------------------------------------------------------------------
Analyzed: Rick Braun / Around The Horn
--------------------------------------------------------------------------------

DR         Peak         RMS     Duration Track
--------------------------------------------------------------------------------
DR8       -0.66 dB   -10.33 dB      5:03 01-So Strong
DR9       -0.63 dB   -10.77 dB      4:21 02-Pool Dancer
DR8       -0.72 dB   -10.32 dB      5:16 03-Love Take Me
DR8       -0.72 dB   -11.37 dB      4:03 04-We Don't Talk Anymore
DR8       -0.77 dB   -10.08 dB      4:38 05-Everything Is Alright
DR8       -0.66 dB   -11.76 dB      4:22 06-In Common
DR9       -0.57 dB   -11.02 dB      5:10 07-I Love You More
DR8       -0.72 dB   -11.02 dB      4:58 08-Around The Horn
DR9       -0.57 dB   -11.84 dB      4:26 09-Vila Vita
DR9       -0.66 dB   -12.96 dB      4:48 10-Yellow
DR8       -0.66 dB   -10.86 dB      5:10 11-One South Beach Night
--------------------------------------------------------------------------------

Number of tracks:  11
Official DR value: DR8

Samplerate:        44100 Hz
Channels:          2
Bits per sample:   24
Bitrate:           1634 kbps
Codec:             FLAC
================================================================================
No seeders - write personal message to M0p94ok. Any questions - support@pro-jazz.com.
Нет сидеров - пишите в личку M0p94ok. Есть вопросы - support@pro-jazz.com
20:07
117
20:09