Поиск

2016 Dezron Douglas Quartet - Soul Jazz {Venus} [DSD64]

2016 Dezron Douglas Quartet - Soul Jazz {Venus} [DSD64]
Стили:
Издатель (лейбл):
Битрейт аудио:
lossless
Доп. инфо:

Формат записи/Источник записи: [SACD-R][OF]
Наличие водяных знаков: Нет
Год издания/переиздания диска: 2016/2017
Продолжительность: 00:46:52
Наличие сканов в содержимом раздачи: Только обложка альбома

Контейнер: ISO (*.iso)
Тип рипа: image
Разрядность: 64(2,8 MHz/1 Bit)
Формат: DSD
Количество каналов: 2.0

Доп. информация: venusrecords
Источник (релизер): jazzy pic

Лог проверки качества
foobar2000 1.6.3 / Замер динамического диапазона (DR) 1.1.1
Дата отчёта:  2021-01-25 22:14:16

--------------------------------------------------------------------------------
Анализ:   DEZRON DOUGLAS QUARTET / Soul Jazz
--------------------------------------------------------------------------------

DR         Пики         RMS           Продолжительность трека
--------------------------------------------------------------------------------
DR8       -4.64 дБ   -14.06 дБ      4:55 01-I Want You
DR7       -4.41 дБ   -13.54 дБ      4:55 02-Tears Of A Clown
DR7       -4.56 дБ   -14.54 дБ      5:24 03-You Make Me Feel Brand New
DR8       -4.36 дБ   -13.81 дБ      4:30 04-Cupid
DR7       -4.90 дБ   -14.74 дБ      4:32 05-Ooh, Baby, Baby
DR8       -4.59 дБ   -13.88 дБ      3:42 06-Having A Party
DR9       -4.69 дБ   -16.24 дБ      5:04 07-Hey There, Lonely Girl
DR11      -4.85 дБ   -18.06 дБ      4:44 08-Love You Madly
DR9       -4.90 дБ   -16.87 дБ      4:29 09-So Amaging
DR7       -4.52 дБ   -13.76 дБ      4:38 10-Wonderful World
--------------------------------------------------------------------------------

Количество треков: 10
Реальные значения DR: DR8

Частота:  2822400 Гц / Частота PCM: 352800 Гц
Каналов:  2
Разрядность:   1
Битрейт:  5645 кбит/с
Кодек:   DSD64
================================================================================
No seeders - write personal message to M0p94ok. Any questions - support@pro-jazz.com.
Нет сидеров - пишите в личку M0p94ok. Есть вопросы - support@pro-jazz.com
11:32
142
Нет комментариев. Ваш будет первым!