Поиск

2019 Paolo Russo Trio - Overland {Odradek} [24-96]

2019 Paolo Russo Trio - Overland {Odradek} [24-96]
Стили:
Дата издания диска:
17 мая 2019
Номер по каталогу:
ODRCD533
Носитель:
WEB
Формат:
PCM
Тип рипа:
tracks
Контейнер:
FLAC (*.flac)
Количество каналов:
2.0
Разрядность/ЧД:
24/96
Битрейт аудио:
lossless
Время звучания:
00:56:11
Наличие сканов:
только обложка
Страна-производитель диска (релиза):
USA
Релизёр (источник):
M0p94ok
Лог проверки качества
foobar2000 1.3.16 / Dynamic Range Meter 1.1.1
log date: 2019-05-17 12:14:03

--------------------------------------------------------------------------------
Analyzed: Paolo Russo Trio / Overland
--------------------------------------------------------------------------------

DR         Peak         RMS     Duration Track
--------------------------------------------------------------------------------
DR12      -0.10 dB   -14.76 dB      6:57 01-Nobil son e fatal
DR11      -0.10 dB   -12.66 dB      5:08 02-Ruinen
DR9       -0.10 dB   -12.16 dB      4:49 03-Filastrocca
DR11      -0.10 dB   -14.79 dB      8:03 04-Kinsarvik
DR12      -0.10 dB   -14.03 dB      4:50 05-O golfinho azul
DR15      -0.10 dB   -17.07 dB      5:35 06-Riviera
DR13      -0.10 dB   -16.98 dB      6:05 07-Rita
DR8       -0.10 dB    -9.81 dB      3:34 08-Carioca Dream
DR10      -0.10 dB   -13.83 dB      4:40 09-The Chant
DR10      -0.10 dB   -11.92 dB      6:29 10-Overland
--------------------------------------------------------------------------------

Number of tracks:  10
Official DR value: DR11

Samplerate:        96000 Hz
Channels:          2
Bits per sample:   24
Bitrate:           3033 kbps
Codec:             FLAC
================================================================================
No seeders - write personal message to M0p94ok. Any questions - support@pro-jazz.com.
Нет сидеров - пишите в личку M0p94ok. Есть вопросы - support@pro-jazz.com
14:03
170
Нет комментариев. Ваш будет первым!