Поиск

2017 VA - Venus The Amazing Super Audio CD Sampler Vol.20 {Venus} [DSD64]

2017 VA - Venus The Amazing Super Audio CD Sampler Vol.20 {Venus} [DSD64]
Стили:
Издатель (лейбл):
Номер по каталогу:
VHGD-245
Битрейт аудио:
lossless
Доп. инфо:

Формат записи/Источник записи: [SACD-R][OF]
Наличие водяных знаков: Нет
Год издания диска: 2017
Продолжительность: 01:16:44
Наличие сканов в содержимом раздачи: Только обложка альбома

Контейнер: ISO (*.iso)
Тип рипа: image
Разрядность: 64(2,8 MHz/1 Bit)
Формат: DSD
Количество каналов: 2.0

Источник (релизер): venusrecords

Лог проверки качества
foobar2000 1.6.3 / Замер динамического диапазона (DR) 1.1.1
Дата отчёта:  2021-01-25 21:16:59

--------------------------------------------------------------------------------
Анализ:   Various Artists / THE VENUS AMAZING SUPER AUDIO CD SAMPLER VOL.20
--------------------------------------------------------------------------------

DR         Пики         RMS           Продолжительность трека
--------------------------------------------------------------------------------
DR5       -4.74 дБ   -11.46 дБ      5:27 01-South Seas
DR8       -4.89 дБ   -16.17 дБ      3:34 02-Por Toda A Minha Vida
DR8       -4.83 дБ   -15.99 дБ      4:22 03-I've Got A Crush On You
DR7       -4.61 дБ   -13.86 дБ      3:42 04-Falando De Amor
DR8       -4.65 дБ   -14.06 дБ      4:55 05-I Want You
DR8       -5.08 дБ   -15.37 дБ      4:11 06-O Amor Em Paz
DR5       -5.23 дБ   -12.19 дБ      6:54 07-If I Should Lose You
DR8       -4.40 дБ   -15.10 дБ      4:25 08-When Your Lover Has Cone
DR7       -4.53 дБ   -13.30 дБ      4:56 09-Ruby
DR10      -5.10 дБ   -17.65 дБ      4:36 10-The Shadow Of You Smile
DR11      -4.83 дБ   -18.45 дБ      4:59 11-The Fire Of Passion
DR8       -5.02 дБ   -16.36 дБ      6:19 12-Beautiful Love
DR8       -7.25 дБ   -17.78 дБ      5:44 13-What's New
DR6       -4.56 дБ   -12.95 дБ      7:00 14-Fantasy
DR7       -5.06 дБ   -13.51 дБ      5:39 15-Dakar Darkness
--------------------------------------------------------------------------------

Количество треков: 15
Реальные значения DR: DR8

Частота:  2822400 Гц / Частота PCM: 352800 Гц
Каналов:  2
Разрядность:   1
Битрейт:  5645 кбит/с
Кодек:   DSD64
================================================================================
No seeders - write personal message to M0p94ok. Any questions - support@pro-jazz.com.
Нет сидеров - пишите в личку M0p94ok. Есть вопросы - support@pro-jazz.com
12:57
135
Нет комментариев. Ваш будет первым!