Поиск

2017 VA - Venus The Amazing Super Audio CD Sampler Vol.19 {Venus} [DSD64]

2017 VA - Venus The Amazing Super Audio CD Sampler Vol.19 {Venus} [DSD64]
Стили:
Издатель (лейбл):
Номер по каталогу:
VHGD-229
Битрейт аудио:
lossless
Доп. инфо:

Формат записи/Источник записи: [SACD-R][OF]
Наличие водяных знаков: Нет
Год издания диска: 2017
Продолжительность: 01:22:26
Наличие сканов в содержимом раздачи: Только обложка альбома

Контейнер: ISO (*.iso)
Тип рипа: image
Разрядность: 64(2,8 MHz/1 Bit)
Формат: DSD
Количество каналов: 2.0

Источник (релизер): venusrecords

Лог проверки качества
foobar2000 1.6.3 / Замер динамического диапазона (DR) 1.1.1
Дата отчёта:  2021-01-25 20:33:42

--------------------------------------------------------------------------------
Анализ:   Various Artists / THE VENUS AMAZING SUPER AUDIO CD SAMPLER VOL.19
--------------------------------------------------------------------------------

DR         Пики         RMS           Продолжительность трека
--------------------------------------------------------------------------------
DR7       -4.88 дБ   -13.31 дБ      5:19 01-Ruby
DR7       -3.87 дБ   -12.95 дБ      4:59 02-Epistrophy
DR10      -4.13 дБ   -15.69 дБ      4:56 03-Robbin's Nest
DR7       -4.90 дБ   -14.09 дБ      7:04 04-I Remember Clifford
DR9       -4.59 дБ   -16.90 дБ      5:13 05-Body And Soul
DR8       -4.36 дБ   -15.34 дБ      7:56 06-Charade
DR7       -5.01 дБ   -13.78 дБ      4:34 07-Speaking Of Love
DR10      -5.04 дБ   -17.96 дБ      3:29 08-Naima
DR9       -5.07 дБ   -16.12 дБ      4:14 09-Stolen Moments
DR6       -4.05 дБ   -13.28 дБ      6:46 10-Seven Steps To Heaven
DR8       -3.70 дБ   -13.76 дБ      8:09 11-Moanin'
DR7       -4.81 дБ   -13.44 дБ      4:29 12-Pocketfull Of Miracles
DR11      -4.45 дБ   -19.99 дБ      5:22 13-Un Bel Di, Vedremo
DR8       -3.72 дБ   -13.38 дБ      4:47 14-Solamente Una Vez
DR10      -4.28 дБ   -16.57 дБ      5:11 15-Blame It On My Youth
--------------------------------------------------------------------------------

Количество треков: 15
Реальные значения DR: DR8

Частота:  2822400 Гц / Частота PCM: 352800 Гц
Каналов:  2
Разрядность:   1
Битрейт:  5645 кбит/с
Кодек:   DSD64
================================================================================
No seeders - write personal message to M0p94ok. Any questions - support@pro-jazz.com.
Нет сидеров - пишите в личку M0p94ok. Есть вопросы - support@pro-jazz.com
00:57
137
Нет комментариев. Ваш будет первым!