Вы используете незарегистрированную версию компонента "Вкладки"!

Поиск

2017 Najee - Poetry In Motion {Shanachie} [24-44.1]

2017 Najee - Poetry In Motion {Shanachie} [24-44.1]
Место записи:
Big Surprise Studio, Encino, CA Clake Aaron Production Studios, Los Angeles, CA East Bay Recording Studios, Tarrytown, NY Higher Ground Studios, London, England kaleidoscope Recording Studios, Union City, NJ Night Flight Studios, Washington, DC Randyland Studios, Phila, PA
Дата издания диска:
25 августа 2017
Издатель (лейбл):
Номер по каталогу:
5453
Носитель:
WEB
Формат:
PCM
Тип рипа:
tracks
Контейнер:
FLAC (*.flac)
Количество каналов:
2.0
Разрядность/ЧД:
24/44,1
Битрейт аудио:
lossless
Время звучания:
00:50:38
Наличие сканов:
буклет pdf
Страна-производитель диска (релиза):
USA
Релизёр (источник):
M0p94ok
Лог проверки качества
foobar2000 1.3.16 / Dynamic Range Meter 1.1.1
log date: 2019-05-14 17:51:41

--------------------------------------------------------------------------------
Analyzed: Najee / Poetry In Motion
--------------------------------------------------------------------------------

DR         Peak         RMS     Duration Track
--------------------------------------------------------------------------------
DR8       -0.62 dB    -9.36 dB      4:41 01-Stratosphere
DR8       -0.56 dB   -10.11 dB      5:32 02-Is It The Way Back
DR9       -0.39 dB   -10.73 dB      4:24 03-Let's Take It Back
DR8       -0.56 dB    -9.85 dB      5:20 04-Noche Romantica
DR8       -0.66 dB   -10.31 dB      6:19 05-We'll Be Missing You
DR9       -0.56 dB   -10.90 dB      4:49 06-Song For The Ladies
DR8       -0.64 dB    -9.90 dB      4:34 07-Don't Make Me Wait
DR9       -0.56 dB   -11.32 dB      6:29 08-Poetry In Motion
DR7       -0.85 dB    -9.51 dB      4:46 09-Running Away
DR9       -0.64 dB   -11.33 dB      3:50 10-Duolology
--------------------------------------------------------------------------------

Number of tracks:  10
Official DR value: DR8

Samplerate:        44100 Hz
Channels:          2
Bits per sample:   24
Bitrate:           1569 kbps
Codec:             FLAC
================================================================================
Any questions - support@pro-jazz.com. Есть вопросы - support@pro-jazz.com
00:01
151
00:07