Поиск

2021 Ron Carter - Foursight - The Complete Stockholm Tapes {n+Out} [24-48]

2021 Ron Carter - Foursight - The Complete Stockholm Tapes {n+Out} [24-48]
Стили:
Битрейт аудио:
lossless

Треклист:

01 - 595 (07:10)
02 - Mr. Bow Tie (11:55)
03 - Flamenco Sketches (06:11)
04 - Seven Steps to Heaven (06:55)
05 - You Are My Sunshine (06:32)
06 - Mr. Bow Tie (Reprise) (03:00)
07 - My Funny Valentine (10:19)
08 - You and the Night and the Music (10:08)
09 - Cominando (07:38)
10 - Joshua (08:50)
11 - Little Waltz (07:03)
12 - Seguaro (10:34)
13 - Cominando, Reprise (01:59)
14 - Nearly (13:10)
15 - You and the Night and the Music (07:57)

Лог проверки качества
foobar2000 1.4.2 / Dynamic Range Meter 1.1.1
log date: 2021-01-25 20:04:01

--------------------------------------------------------------------------------
Analyzed: Ron Carter / Foursight - The Complete Stockholm Tapes
--------------------------------------------------------------------------------

DR         Peak         RMS     Duration Track
--------------------------------------------------------------------------------
DR13      -1.05 dB   -15.98 dB      7:10 01-595
DR13      -1.04 dB   -15.84 dB     11:56 02-Mr. Bow Tie
DR15      -1.06 dB   -20.10 dB      6:11 03-Flamenco Sketches
DR12      -1.01 dB   -15.62 dB      6:55 04-Seven Steps to Heaven
DR15      -2.99 dB   -23.84 dB      6:32 05-You Are My Sunshine
DR13      -1.06 dB   -17.68 dB      3:01 06-Mr. Bow Tie (Reprise)
DR14      -1.07 dB   -20.72 dB     10:20 07-My Funny Valentine
DR12      -1.04 dB   -15.80 dB     10:08 08-You and the Night and the Music
DR11      -1.01 dB   -14.07 dB      7:39 09-Cominando
DR11      -1.04 dB   -13.89 dB      8:51 10-Joshua
DR14      -2.60 dB   -20.14 dB      7:04 11-Little Waltz
DR12      -1.03 dB   -15.36 dB     10:35 12-Seguaro
DR13      -1.01 dB   -16.65 dB      2:00 13-Cominando, Reprise
DR12      -1.05 dB   -16.03 dB     13:10 14-Nearly
DR12      -1.05 dB   -15.66 dB      7:57 15-You and the Night and the Music
--------------------------------------------------------------------------------

Number of tracks:  15
Official DR value: DR13

Samplerate:        48000 Hz
Channels:          2
Bits per sample:   24
Bitrate:           1668 kbps
Codec:             FLAC
================================================================================
Приватный:
Нет (DHT включён)
Размер:
1.36 Гб (1,457,088,753 байт) » файлов: 16
Участники:
0 раздают, 0 качают (0 участников всего)
Внешние участники:
7 раздают, 2 качают (9 участников всего) [ Обновить ]
No seeders - write personal message to M0p94ok. Нет сидеров - пишите в личку M0p94ok.
21:41
102
Нет комментариев. Ваш будет первым!