Поиск

1975 Hubert Laws - The San Francisco Concert (2017) {CTI} [24-192]

1975 Hubert Laws - The San Francisco Concert (2017) {CTI} [24-192]
Место записи:
Paramount Theatre, Oakland, CA, USA
Дата издания диска:
4 октября 1975
Издатель (лейбл):
Битрейт аудио:
lossless
Доп. инфо:

Формат записи/Источник записи: [TR24][OF]
Издание: Remastered
Год издания/переиздания диска: 1975/2017
Продолжительность: 00:37:45
Наличие сканов в содержимом раздачи: Нет

Контейнер: FLAC (*.flac)
Тип рипа: tracks
Разрядность: 24/192
Количество каналов: 2.0

Источник (релизер): King Records

Лог проверки качества
foobar2000 1.4.3 / Dynamic Range Meter 1.1.1
log date: 2020-12-28 15:32:47

--------------------------------------------------------------------------------
Analyzed: Hubert Laws / The San Francisco Concert
--------------------------------------------------------------------------------

DR         Peak         RMS     Duration Track
--------------------------------------------------------------------------------
DR12      -0.01 dB   -14.73 dB     12:12 01-Modadji
DR11      -0.01 dB   -13.46 dB      6:16 02-Feel Like Making Love
DR11      -0.01 dB   -13.10 dB     10:58 03-Farandole
DR11      -1.04 dB   -14.47 dB      8:22 04-Scheherazade
--------------------------------------------------------------------------------

Number of tracks:  4
Official DR value: DR11

Samplerate:        192000 Hz
Channels:          2
Bits per sample:   24
Bitrate:           5195 kbps
Codec:             FLAC
================================================================================
No seeders - write personal message to M0p94ok. Any questions - support@pro-jazz.com.
Нет сидеров - пишите в личку M0p94ok. Есть вопросы - support@pro-jazz.com
17:16
146
Нет комментариев. Ваш будет первым!