Поиск

2015 VA - Venus The Amazing Super Audio CD Sampler Vol.6 {Venus} [DSD64]

2015 VA - Venus The Amazing Super Audio CD Sampler Vol.6 {Venus} [DSD64]
Стили:
Издатель (лейбл):
Номер по каталогу:
VHGD-89
Битрейт аудио:
lossless
Треклист:

01. Charade - Steve Kuhn Trio《 H. Mancini 》
02. Beautiful Love - Derek Smith Trio《 V. Young, W. King, E. Van Alstyne 》
03. Turquoise - Cedar Walton Trio《 C. Walton 》
04. Besame Mucho - Renato Sellani Trio《 C. Velazquez 》
05. Summertime - Ted Rosenthal Trio《 G. Gershwin 》
06. This Masquarade - Rob Agerbeek Trio《 L. Russel 》
07. You'd Be So Nice To Come Home To - Barbara Carroll Trio《 C. Porter 》
08. Cry Me A River - John Hicks Trio《 A. Hamilton 》
09. So In Love - John Di Martino Romantic Jazz Trio《 C. Porter 》
10. Midnight In Moscow - Vladimir Shafranov Trio《 V. Pavlovich Solovev Sedoi 》
11. Love Is A Many-Splendored Thing - Jon Davis Trio《 S. Fain 》
12. La Tarara - Chano Dominguez Trio《 Trad 》
13. The Lady From Aragon - Tete Montoliu Trio《 Trad 》
14. The Shadow Of Your Smile - Dan Nimmer Trio《 J. Mandel 》
15. Solfeggietto - Cyrus Chestnut Trio《 E. Bach 》

Доп. инфо:

Формат записи/Источник записи: [SACD-R][OF]
Наличие водяных знаков: Нет
Издание: Sampler
Год издания/переиздания диска: 2015
Продолжительность: 01:28:33
Наличие сканов в содержимом раздачи: Только обложка альбома

Контейнер: ISO (*.iso)
Тип рипа: image
Разрядность: 64 (2,8 MHz/1 Bit)
Формат: DSD
Количество каналов: 2.0

Источник (релизер): venusrecords

Лог проверки качества
foobar2000 1.6.3 / Замер динамического диапазона (DR) 1.1.1
Дата отчёта:  2021-01-24 14:16:42

--------------------------------------------------------------------------------
Анализ:   VENUS GREAT PIANO TRIO / THE VENUS AMAZING SUPER AUDIO CD SAMPLER VOL.6
--------------------------------------------------------------------------------

DR         Пики         RMS           Продолжительность трека
--------------------------------------------------------------------------------
DR9       -5.50 дБ   -16.59 дБ      5:49 01-Charade
DR8       -5.31 дБ   -16.15 дБ      6:47 02-Beautiful Love
DR8       -5.07 дБ   -15.35 дБ      6:10 03-Turquoise
DR8       -5.02 дБ   -15.73 дБ      6:49 04-Besame Mucho
DR9       -5.23 дБ   -16.39 дБ      6:19 05-Summertime
DR8       -5.07 дБ   -14.20 дБ      3:42 06-This Masquarade
DR8       -5.03 дБ   -16.03 дБ      6:18 07-You'd Be So Nice To Come Home To
DR8       -6.28 дБ   -15.87 дБ      7:58 08-Cry Me A River
DR7       -4.91 дБ   -13.75 дБ      5:11 09-So In Love
DR8       -4.71 дБ   -14.70 дБ      6:55 10-Midnight In Moscow
DR10      -4.86 дБ   -16.04 дБ      4:41 11-Love Is A Many-Splendored Thing
DR7       -4.75 дБ   -13.69 дБ      4:46 12-La Tarara
DR9       -4.76 дБ   -15.69 дБ      7:02 13-The Lady From Aragon
DR8       -6.03 дБ   -15.43 дБ      4:59 14-The Shadow Of Your Smile
DR8       -4.95 дБ   -14.95 дБ      5:10 15-Solfeggietto
--------------------------------------------------------------------------------

Количество треков: 15
Реальные значения DR: DR8

Частота:  2822400 Гц / Частота PCM: 352800 Гц
Каналов:  2
Разрядность:   1
Битрейт:  5645 кбит/с
Кодек:   DSD64
================================================================================
Приватный:
Нет (DHT включён)
Размер:
3.56 Гб (3,825,455,014 байт) » файлов: 4
Участники:
0 раздают, 0 качают (0 участников всего)
Внешние участники:
9 раздают, 3 качают (12 участников всего) [ Обновить ]
No seeders - write personal message to M0p94ok. Нет сидеров - пишите в личку M0p94ok.
15:40
455
Нет комментариев. Ваш будет первым!