Поиск

1981 The Square - Magic (2015) {Sony} [DSD64]

1981 The Square - Magic (2015) {Sony} [DSD64]
Стили:
Издатель (лейбл):
Битрейт аудио:
lossless

Треклист:

01. It’s Magic
02. Chou Chow
03. I’ll Never Forget You
04. Little Mermaid
05. Larisa
06. Chase
07. Sunshine Sunshine
08. Wandering Soldier
09. I LUV U
10. Kawaii Techno

Доп. инфо:

Формат записи/Источник записи: [DSD][OF]
Наличие водяных знаков: Нет
Год издания/переиздания диска: 1981/2015
Продолжительность: 00:43:16
Наличие сканов в содержимом раздачи: Только обложка альбома

Контейнер: DFF (*.dff)
Тип рипа: tracks
Разрядность: 64(2,8 MHz/1 Bit)
Формат: DSD
Количество каналов: 2.0

Источник (релизер): mora.jp

Лог проверки качества
foobar2000 1.6.3 / Замер динамического диапазона (DR) 1.1.1
Дата отчёта:  2021-01-28 15:42:09

--------------------------------------------------------------------------------
Анализ:   The Square / Magic
--------------------------------------------------------------------------------

DR         Пики         RMS           Продолжительность трека
--------------------------------------------------------------------------------
DR10      -5.40 дБ   -16.95 дБ      5:16 01-It's Magic
DR10      -5.37 дБ   -17.67 дБ      4:10 02-Chou Chow
DR11      -6.21 дБ   -18.67 дБ      3:37 03-I'll Never Forget You
DR9       -6.06 дБ   -16.20 дБ      4:16 04-Little Mermaid
DR10      -6.87 дБ   -21.51 дБ      4:14 05-Larisa
DR8       -6.63 дБ   -16.46 дБ      3:06 06-Chase
DR9       -5.30 дБ   -16.61 дБ      4:13 07-Sunshine Sunshine
DR11      -5.92 дБ   -18.12 дБ      4:28 08-Wandering Soldier
DR11      -5.79 дБ   -17.91 дБ      4:19 09-I LUV U
DR11      -5.54 дБ   -17.94 дБ      5:38 10-Kawaii Techno
--------------------------------------------------------------------------------

Количество треков: 10
Реальные значения DR: DR10

Частота:  2822400 Гц / Частота PCM: 352800 Гц
Каналов:  2
Разрядность:   1
Битрейт:  5645 кбит/с
Кодек:   DSD64
================================================================================
Приватный:
Нет (DHT включён)
Размер:
1.71 Гб (1,832,073,782 байт) » файлов: 12
Участники:
0 раздают, 0 качают (0 участников всего)
Внешние участники:
5 раздают, 2 качают (7 участников всего) [ Обновить ]
No seeders - write personal message to M0p94ok. Any questions - support@pro-jazz.com.
Нет сидеров - пишите в личку M0p94ok. Есть вопросы - support@pro-jazz.com
15:24
105
Нет комментариев. Ваш будет первым!