Поиск

1978 The Square - Lucky Summer Lady (2015) {Sony} [DSD64]

1978 The Square - Lucky Summer Lady (2015) {Sony} [DSD64]
Стили:
Издатель (лейбл):
Битрейт аудио:
lossless
Доп. инфо:

Формат записи/Источник записи: [DSD][OF]
Наличие водяных знаков: Нет
Год издания/переиздания диска: 1978/2015
Продолжительность: 00:38:32
Наличие сканов в содержимом раздачи: Только обложка альбома

Контейнер: DFF (*.dff)
Тип рипа: tracks
Разрядность: 64(2,8 MHz/1 Bit)
Формат: DSD
Количество каналов: 2.0

Источник (релизер): mora.jp

Лог проверки качества
foobar2000 1.6.3 / Замер динамического диапазона (DR) 1.1.1
Дата отчёта:  2021-01-28 16:05:21

--------------------------------------------------------------------------------
Анализ:   The Square / Lucky Summer Lady
--------------------------------------------------------------------------------

DR         Пики         RMS           Продолжительность трека
--------------------------------------------------------------------------------
DR11      -5.46 дБ   -17.97 дБ      6:05 01-A Feel Deep Inside
DR10      -6.62 дБ   -19.57 дБ      7:35 02-Lucky Summer Lady
DR11      -5.22 дБ   -18.05 дБ      5:09 03-The Number
DR10      -5.99 дБ   -17.58 дБ      7:26 04-Future Fly
DR12      -6.54 дБ   -21.27 дБ      5:57 05-Love In A Dream (I Won't Last A Day Without You)
DR11      -5.64 дБ   -18.64 дБ      6:20 06-Before It's Gone Too Far
--------------------------------------------------------------------------------

Количество треков: 6
Реальные значения DR: DR11

Частота:  2822400 Гц / Частота PCM: 352800 Гц
Каналов:  2
Разрядность:   1
Битрейт:  5645 кбит/с
Кодек:   DSD64
================================================================================
No seeders - write personal message to M0p94ok. Any questions - support@pro-jazz.com.
Нет сидеров - пишите в личку M0p94ok. Есть вопросы - support@pro-jazz.com
19:35
125
Нет комментариев. Ваш будет первым!