Вы используете незарегистрированную версию компонента "Вкладки"!

Поиск

2016 VA - Venus The Amazing Super Audio CD Sampler Vol.12 {Venus} [DSD64]

2016 VA - Venus The Amazing Super Audio CD Sampler Vol.12 {Venus} [DSD64]
Стили:
Издатель (лейбл):
Номер по каталогу:
VHGD-132
Битрейт аудио:
lossless
Доп. инфо:

Формат записи/Источник записи: [SACD-R][OF]
Наличие водяных знаков: Нет
Издание: Sampler
Год издания диска: 2016
Продолжительность: 01:27:18
Наличие сканов в содержимом раздачи: Только обложка альбома

Контейнер: ISO (*.iso)
Тип рипа: image
Разрядность: 64(2,8 MHz/1 Bit)
Формат: DSD
Количество каналов: 2.0

Источник (релизер): venusrecords

Лог проверки качества
foobar2000 1.6.3 / Замер динамического диапазона (DR) 1.1.1
Дата отчёта:  2021-01-28 12:52:37

--------------------------------------------------------------------------------
Анализ:   Various Artists / Venus The Amazing Super Audio CD Sampler Vol.12
--------------------------------------------------------------------------------

DR         Пики         RMS           Продолжительность трека
--------------------------------------------------------------------------------
DR7       -4.81 дБ   -12.42 дБ      7:53 01-Chim Chim Cheree
DR7       -4.33 дБ   -12.87 дБ      4:15 02-Blue Bossa
DR9       -4.07 дБ   -14.19 дБ      5:49 03-Shall We Dance
DR7       -4.57 дБ   -13.86 дБ      5:10 04-Autumn In New York
DR7       -4.50 дБ   -14.49 дБ      5:54 05-So In Love
DR7       -4.89 дБ   -13.36 дБ      5:33 06-Detour Ahead
DR7       -4.76 дБ   -12.99 дБ      5:03 07-Summer Night
DR9       -5.34 дБ   -16.44 дБ      6:22 08-The Things We Did Last Summer
DR9       -5.41 дБ   -17.10 дБ      5:05 09-When I Grow Too Old To Dream
DR7       -6.02 дБ   -16.97 дБ      6:12 10-Time After Time
DR8       -5.36 дБ   -16.43 дБ      5:13 11-My Funny Valentine
DR7       -4.37 дБ   -14.72 дБ      4:30 12-So This Is Love
DR8       -4.39 дБ   -13.79 дБ      6:13 13-Turquoise
DR8       -4.73 дБ   -13.09 дБ      6:09 14-Menina Moca
DR7       -4.77 дБ   -13.09 дБ      7:58 15-Lullaby Of Birdland
--------------------------------------------------------------------------------

Количество треков: 15
Реальные значения DR: DR8

Частота:  2822400 Гц / Частота PCM: 352800 Гц
Каналов:  2
Разрядность:   1
Битрейт:  5645 кбит/с
Кодек:   DSD64
================================================================================
Any questions - support@pro-jazz.com. Есть вопросы - support@pro-jazz.com
21:48
210
Нет комментариев. Ваш будет первым!