Поиск

2020 Dino Rubino - Time Of Silence {Tuk Music} [24-48]

2020 Dino Rubino - Time Of Silence {Tuk Music} [24-48]
Стили:
Дата издания диска:
19 июня 2020
Номер по каталогу:
TUK 039
Носитель:
WEB
Формат:
PCM
Тип рипа:
tracks
Контейнер:
FLAC (*.flac)
Количество каналов:
2.0
Разрядность/ЧД:
24/48
Битрейт аудио:
lossless
Время звучания:
00:58:46
Наличие сканов:
только обложка
Наличие водяных знаков:
нет
Страна-производитель диска (релиза):
Italy
Релизёр (источник):
M0p94ok

Треклист:

01. Maybe Today  04:51
02. Claire  07:31
03. Just Blue  04:43
04. So Far so Close  06:02
05. Karol  06:29
06. Owl in the Moon  06:45
07. Tree of Life  05:42
08. Willow Weep  06:52
09. Loving You  05:48
10. Settembre  04:03

Доп. инфо:

https://www.highresaudio.com/en/album/view/tfyufa/dino-rubino-time-of-silence

Сицилийский пианист и трубач пробился на верхние этажи итальянского джаза, выиграв премию «Premio Internazionale Massimo Urbani» 1998 года в категории «Лучший новый талант». Также он играл в группе Франческо Кафизо.

Лог проверки качества
foobar2000 1.3.16 / Dynamic Range Meter 1.1.1
log date: 2020-06-19 23:38:24

--------------------------------------------------------------------------------
Analyzed: Dino Rubino / time of silence
--------------------------------------------------------------------------------

DR         Peak         RMS     Duration Track
--------------------------------------------------------------------------------
DR6       -0.13 dB    -8.38 dB      4:51 01-Maybe Today
DR7       -0.13 dB    -9.11 dB      7:32 02-Claire
DR10      -0.15 dB   -13.64 dB      4:44 03-Just Blue
DR11      -0.15 dB   -13.84 dB      6:03 04-So Far so Close
DR8       -0.11 dB   -10.46 dB      6:29 05-Karol
DR8       -0.15 dB   -10.60 dB      6:46 06-Owl in the Moon
DR8       -0.15 dB   -10.62 dB      5:42 07-Tree of Life
DR7       -0.13 dB    -9.92 dB      6:52 08-Willow Weep
DR10      -0.15 dB   -13.12 dB      5:48 09-Loving You
DR10      -0.15 dB   -12.16 dB      4:03 10-Settembre
--------------------------------------------------------------------------------

Number of tracks:  10
Official DR value: DR8

Samplerate:        48000 Hz
Channels:          2
Bits per sample:   24
Bitrate:           1547 kbps
Codec:             FLAC
================================================================================
Приватный:
Нет (DHT включён)
Размер:
658.42 Мб (690,401,930 байт) » файлов: 12
Участники:
1 раздают, 0 качают (1 участников всего)
Внешние участники:
--- [ Обновить ]
No seeders - write personal message to M0p94ok. Any questions - support@pro-jazz.com.
Нет сидеров - пишите в личку M0p94ok. Есть вопросы - support@pro-jazz.com
22:26
88
Нет комментариев. Ваш будет первым!